Browse Collections Artists Sources   Search Dates

Add Show    List Management    Help


Grateful Dead 08/16/87
Town Park, Telluride, CO
Comments Add Comment    Source Collectors    Add to Collection    Add to Want List    History
Source # 81679 Other Sources
Entered by Matt Vernon
Checksums ffp , flac-md5
Disc Counts 2 / 2
Media Size
Date Circulated
Date Added
01/15/2007
01/15/2007
Source Summary flac16; Recording Info: SBD -> Cassette Master (Maxell MX90) Transfer Info: Cassette Master (Tascam 122mkII) -> Apogee MiniMe (24bit/48k) -> Samplitude Professional v8.01 -> FLAC/16 All Transfers and Mastering By Charlie Miller 
  Archive
Source Information - Download Text | Download Zip
Grateful Dead - August 16, 1987
Town Park - Telluride, CO

Recording Info:
SBD -> Cassette Master (Maxell MX90)

Transfer Info:
Cassette Master (Tascam 122mkII) -> Apogee MiniMe (24bit/48k) ->
Samplitude Professional v8.01 -> FLAC/16
(2 Discs Audio / 2 Discs FLAC)

All Transfers and Mastering By Charlie Miller
[email protected]
January 9, 2007

Patch Info:
Pre FM -> Master Reel -> Dat -> CD Supplies:
Space (0:00 - 3:16)
Brokedown Palace (6:23 - End of Song)

Notes:
-- 2nd Set is seamless
-- Encore on end of 1st set to fit show on 2 discs
-- Encore can be re-joined with 2nd set seamlessly
-- La Bamba tease in Good Lovin'
-- False start in Brokedown Palace
-- Thanks to Paul Scotton and Joani Walker for the tapes

Set 1:
d1t01 - Tuning
d1t02 - Mississippi Half-Step Uptown Toodeloo ->
d1t03 - Little Red Rooster
d1t04 - Iko Iko
d1t05 - Beer Barrel Polka
d1t06 - Far From Me
d1t07 - West L.A. Fadeaway
d1t08 - When I Paint My Masterpiece
d1t09 - Big Railroad Blues ->
d1t10 - The Promised Land

Set 2:
d2t01 - When Push Comes To Shove ->
d2t02 - Samson And Delilah ->
d2t03 - He's Gone ->
d2t04 - Drums ->
d2t05 - Space ->
d2t06 - The Other One ->
d2t07 - Truckin' ->
d2t08 - Black Peter->
d2t09 - Good Lovin'

Encore:
d1t11 - Crowd/Tuning
d1t12 - Touch Of Grey ->
d1t13 - Brokedown Palace


SHNTOOL OUTPUT:
    length     expanded size   cdr  WAVE problems filename
     1:11.60       12665564    ---   --   -----   gd87-08-16d1t01.wav
     7:26.04       78683852    ---   --   -----   gd87-08-16d1t02.wav
     9:31.27      100787948    ---   --   -----   gd87-08-16d1t03.wav
     6:23.46       67669436    ---   --   -----   gd87-08-16d1t04.wav
     2:06.05       22238204    ---   --   -----   gd87-08-16d1t05.wav
     4:15.53       45106700    ---   --   -----   gd87-08-16d1t06.wav
     7:45.58       82162460    ---   --   -----   gd87-08-16d1t07.wav
     5:05.25       53860844    ---   --   -----   gd87-08-16d1t08.wav
     4:05.74       43392092    ---   --   -----   gd87-08-16d1t09.wav
     4:07.69       43733132    ---   --   -----   gd87-08-16d1t10.wav
     1:14.13       13084220    ---   --   -----   gd87-08-16d1t11.wav
     6:08.10       64938764    ---   --   -----   gd87-08-16d1t12.wav
     6:40.45       70665884    ---   --   -----   gd87-08-16d1t13.wav
     5:02.68       53432780    ---   --   -----   gd87-08-16d2t01.wav
     7:07.37       75409868    ---   --   -----   gd87-08-16d2t02.wav
    10:38.72      112712588    ---   --   -----   gd87-08-16d2t03.wav
     9:55.49      105073292    ---   --   -----   gd87-08-16d2t04.wav
     4:06.33       43472060    ---   --   -----   gd87-08-16d2t05.wav
     8:32.32       90392108    ---   --   -----   gd87-08-16d2t06.wav
     6:23.08       67580060    ---   --   -----   gd87-08-16d2t07.wav
     9:04.43       96062780    ---   --   -----   gd87-08-16d2t08.wav
     8:48.42       93238028    ---   --   -----   gd87-08-16d2t09.wav
   135:42.48     1436362664 B                     (totals for 22 files)
Show Checksums
ffp
gd87-08-16d1t01.flac:bdd26a25afb396bd021643b7f6c04e92
gd87-08-16d1t02.flac:13f17ea6b7e036003fcac8bf9c44923f
gd87-08-16d1t03.flac:1cb9c933c56fcd75a995150107bcfd68
gd87-08-16d1t04.flac:f4e6fd918af48c384867d38ac7681dc2
gd87-08-16d1t05.flac:8febf29c0e7751045c70a582fd6fddfe
gd87-08-16d1t06.flac:6d2d548b0e2a795c617745be225751f0
gd87-08-16d1t07.flac:c900ff591fe20e8a821185653e810b50
gd87-08-16d1t08.flac:7e15beca23b9a8db926b7143cecea3a7
gd87-08-16d1t09.flac:5f2b7a597eba227a5ae62d9ac2148a9d
gd87-08-16d1t10.flac:04c5682579c814168f7f58aa5a4d4a24
gd87-08-16d1t11.flac:7d0009dfb6a2a06c50490a91f97f0f88
gd87-08-16d1t12.flac:9f9ada71eabdad52938b497c731d4fb6
gd87-08-16d1t13.flac:a29cc1bf9acd3e7cd8b249fffc44d70d
gd87-08-16d2t01.flac:c879e0ceaf01d39f0d814c0faab87b9b
gd87-08-16d2t02.flac:1c4f0df3d25ab891f96c649339350854
gd87-08-16d2t03.flac:4ac555d58060b2e2fa38fc662fc3ede7
gd87-08-16d2t04.flac:f64bfba94c9b276cd1c8431e2ddaa3b3
gd87-08-16d2t05.flac:65ddd22803fe23e6c1bbe96bc7b90ed9
gd87-08-16d2t06.flac:6b6ca228e8ebb8efe4dbdfae3c246226
gd87-08-16d2t07.flac:09f719a03e657077dc594bd9e722b623
gd87-08-16d2t08.flac:08950c9956f3abdb9719162696200212
gd87-08-16d2t09.flac:81494c7fbb7d86b28ec2b17900d7cafc
flac-md5
825cc0b1600fdf734d9b1308d99d57a3 *gd87-08-16d1t01.flac
181ed6cbf5dfc4a22f8041a3bf135f8b *gd87-08-16d1t02.flac
0127c6d1b1486ef9ffaa7492193dc0e5 *gd87-08-16d1t03.flac
394f0c720610d932242bb81985a33113 *gd87-08-16d1t04.flac
3a95f50a379b858ff3daa965e45735bc *gd87-08-16d1t05.flac
281b55fef37fbea780ce02c6d895fe38 *gd87-08-16d1t06.flac
a0acdd3ee0de8810c2a7269cc9127733 *gd87-08-16d1t07.flac
ec7464a16b88b1ebeb7c1c0fe9274ffc *gd87-08-16d1t08.flac
1fd7277b501c17fbee1c4e266df8aa9b *gd87-08-16d1t09.flac
94dc136ba277a52bb3aedd95c93e5e6f *gd87-08-16d1t10.flac
a12eb6acdc8d614f3e112c59d8c3cc4c *gd87-08-16d1t11.flac
91c7ac7b9d96932011949dd1fcb436ba *gd87-08-16d1t12.flac
3c518f173afbd64b84d4c08ce78e31b4 *gd87-08-16d1t13.flac
0788277e9c1b98558cfb0ad649c61fb9 *gd87-08-16d2t01.flac
ab93180dee4e23ab0abae49707ba436b *gd87-08-16d2t02.flac
9121eab41f0608002023adcb891a44d8 *gd87-08-16d2t03.flac
d8fc9ed263c89d3ba38c1be736137205 *gd87-08-16d2t04.flac
f6231ce6398141ce8c2ef23672e425a5 *gd87-08-16d2t05.flac
7ac43514dd77a53eeaf140dccde826bd *gd87-08-16d2t06.flac
ba2dfd359e4631b50e2266b43b6b6aad *gd87-08-16d2t07.flac
9143d0ae6f065e271ecea2347ec421c9 *gd87-08-16d2t08.flac
5a91b7f3a38f330dfe41f2cbfa9c285f *gd87-08-16d2t09.flac

Comments
Add Comment
Other Sources (comments)
PreFM > Rm > DAT > CDR >... (1) flac16; Source:... (0) flac16; Source Info:... (0)
Date User Comment