Browse Collections Artists Sources   Search Dates

Add Show    List Management    Help


Grateful Dead 09/15/82
Capital Centre, Landover, MD
Comments Add Comment    Source Collectors    Add to Collection    Add to Want List    History
Source # 81690 Other Sources
Entered by Matt Vernon
Checksums ffp , flac-md5
Disc Counts 2 / 2
Media Size
Date Circulated
Date Added
01/15/2007
01/15/2007
Source Summary flac16; Recording by Tiger Rose - FOB Nak shotgun mics > Sony TC-D5. MAC > CD Analog to Digital transfer by David Howard." Transfer: CDR > EAC > WavMerge > Soundforge (on d2t12) > CD-Wave > TLH v.1.0.0.72 (for SBE-OK, FLAC compression, and checksums) > FLAC 
  Archive
Source Information - Download Text | Download Zip
GRATEFUL DEAD
Capitol Center
Landover MD
09-15-1982

Disc One - Set One (60:28)

01 Playin' in the Band >
02 Crazy Fingers >
03 PITB Jam #1 >
04 Little Red Rooster
05 Dupree's Diamond Blues >
06 Beat it on Down the Line
07 It Must Have Been the Roses >
08 PITB Jam #2 >
09 Let it Grow >
10 Keep Your Day Job

Disc Two - Set Two (77:12)

01 crowd & tuning
02 Shakedown Street >
03 PITB Jam #3 >
04 Lost Sailor >
05 Saint of Circumstance >
06 Drums// (tape flip)
07 Jam >
08 Not Fade Away >
09 Stella Blue >
10 Around and Around >
11 Good Lovin'
-- encore --
12 Touch of Grey

Aud Source info: "Recorded by Tiger Rose, FOB Nak shotgun mics >
Sony TC-D5. MAC > CD Analog to Digital transfer by David Howard."

Transfer: CDR > EAC > WavMerge > Soundforge (on d2t12) > CD-Wave > TLH v.1.0.0.72 (for SBE-OK, FLAC compression, and checksums) > FLAC, January 2007 by Andrew F.

Note on source: This is the same Aud MAC that provided the patches
for both ShnID's 8550 and 11881. I obtained these discs from Jim
Wise in 2001 around the time the sources were patched together, so
here is the Aud presented in its complete form. I took the source
info from the text file in ShnID-8550. Thanks for the discs Jim!

The first notes of Playin' are slightly clipped. There's a tape
flip in Drums which cuts into the beginning of the Jam. Touch of
Grey sounds different, and appears to be from a different Aud
source. I made some adjustments on that track with Soundforge
so it would more closely resemble the rest of the recording.


shntool

    length     expanded size   cdr  WAVE problems filename
     8:38.71       91542236    ---   --   ---xx   gd1982-09-15d1t01.flac
     9:10.74       97194092    ---   --   ---xx   gd1982-09-15d1t02.flac
     1:33.07       16421708    ---   --   ---xx   gd1982-09-15d1t03.flac
     7:58.33       84396860    ---   --   ---xx   gd1982-09-15d1t04.flac
     6:02.02       63861548    ---   --   ---xx   gd1982-09-15d1t05.flac
     3:11.05       33704204    ---   --   ---xx   gd1982-09-15d1t06.flac
     5:09.33       54585260    ---   --   ---xx   gd1982-09-15d1t07.flac
     2:44.10       28953164    ---   --   ---xx   gd1982-09-15d1t08.flac
    10:57.35      115977164    ---   --   ---xx   gd1982-09-15d1t09.flac
     5:03.18       53491580    ---   --   ---xx   gd1982-09-15d1t10.flac
     0:27.15        4798124    ---   --   ---xx   gd1982-09-15d2t01.flac
    12:07.04      128252252    ---   --   ---xx   gd1982-09-15d2t02.flac
     2:35.06       27356156    ---   --   ---xx   gd1982-09-15d2t03.flac
     7:03.35       74699564    ---   --   ---xx   gd1982-09-15d2t04.flac
     7:30.01       79382396    ---   --   ---xx   gd1982-09-15d2t05.flac
     4:55.05       52049804    ---   --   ---xx   gd1982-09-15d2t06.flac
     6:14.13       66004220    ---   --   ---xx   gd1982-09-15d2t07.flac
     9:11.64       97346972    ---   --   ---xx   gd1982-09-15d2t08.flac
     8:23.62       88875068    ---   --   ---xx   gd1982-09-15d2t09.flac
     3:49.61       40539116    ---   --   ---xx   gd1982-09-15d2t10.flac
     7:55.54       83917052    ---   --   ---xx   gd1982-09-15d2t11.flac
     6:59.04       73921052    ---   --   ---xx   gd1982-09-15d2t12.flac
   137:41.12     1457269592 B                     (totals for 22 files, 0.6313 overall compression ratio)

There were no sector boundary errors.
Show Checksums
ffp
gd1982-09-15d1t01.flac:d252c0f468ce3236d48c124a2e77e7a4
gd1982-09-15d1t02.flac:f93933ad44e192f648219721e10dd582
gd1982-09-15d1t03.flac:ba9b87ccd99b8a308e5403841713d37d
gd1982-09-15d1t04.flac:ff9bcce138fec52d7a418e6054612b30
gd1982-09-15d1t05.flac:e16920e2f1b87630546b64dd8485acc3
gd1982-09-15d1t06.flac:334beb505bda20af39ce89714210b204
gd1982-09-15d1t07.flac:2a2625e29bc56403139e056ece7ebe27
gd1982-09-15d1t08.flac:6145ac02435e4910a3341062cf1aaab1
gd1982-09-15d1t09.flac:7b6d9cdbfe9c60b8e8db66bb12908563
gd1982-09-15d1t10.flac:d7b0139d1599719d93dbfd6119ed6d87
gd1982-09-15d2t01.flac:43409f8d5d579bbbd7f2a70eeb4a9107
gd1982-09-15d2t02.flac:29aa1f3b0a0023b7ae87931a57c1b79d
gd1982-09-15d2t03.flac:30d63b3c8dd0d45f8bcb31902bacdff9
gd1982-09-15d2t04.flac:2260272cc870a199adfc90d32a97048a
gd1982-09-15d2t05.flac:79abb7e02d6acb8c648cc70aed02d321
gd1982-09-15d2t06.flac:153c7c9635cab4080267392cb6701556
gd1982-09-15d2t07.flac:e3d8e0a193cb47af405d80ba59ffa29a
gd1982-09-15d2t08.flac:634235284d33739444cb0ef55db0d37e
gd1982-09-15d2t09.flac:8cbc76185da506421446cf13b76b60d5
gd1982-09-15d2t10.flac:b539bc59972b3dccdc4624d52a365a66
gd1982-09-15d2t11.flac:2221a669af2166415eafab51ac1b09cd
gd1982-09-15d2t12.flac:677a421a5d13b8ec304871394217b601
flac-md5
235cdbf88b358bc236d85ca23f48c019 *gd1982-09-15d1t01.flac
e06750cb5cfe2aab8edb3e47bb4595fe *gd1982-09-15d1t02.flac
94b6253a2cf5eeed7836247cdea2c0f0 *gd1982-09-15d1t03.flac
0818018f52c7fba8a9ca7f5c35d8b694 *gd1982-09-15d1t04.flac
106342960786a87dc518919f31c7e9ec *gd1982-09-15d1t05.flac
91e760e7ac4256caff03566815074d2c *gd1982-09-15d1t06.flac
beb9ee0c368e2589df1b75116ace9d53 *gd1982-09-15d1t07.flac
05021df4bac05359840776f4d38b80df *gd1982-09-15d1t08.flac
112c965cbad77d5d83fdf3baa64dbeac *gd1982-09-15d1t09.flac
e0ff25d6b8ccfbd45e40dd6584dabf30 *gd1982-09-15d1t10.flac
b6efda46a927d22567ae2e1b7ebc50a5 *gd1982-09-15d2t01.flac
a85dad39e2dff60ee12ba93c7aecdf2a *gd1982-09-15d2t02.flac
776904332c5c0d7449f79e49ca3fab7c *gd1982-09-15d2t03.flac
06cba54c19ebeb3f3fb4fc130fc4804a *gd1982-09-15d2t04.flac
d34d935c58975ce6c9a9ac4ac509856c *gd1982-09-15d2t05.flac
4d40166664aeb0dbf8e978cc31756215 *gd1982-09-15d2t06.flac
310557e4f93512506404925d9fd1005d *gd1982-09-15d2t07.flac
db2f4efb96df4bef16b232359094a00d *gd1982-09-15d2t08.flac
e3412aefd31cce6552d864329b8f8c5e *gd1982-09-15d2t09.flac
230ac5121e6fe82918b652e2b93612ed *gd1982-09-15d2t10.flac
0e69be25e31c6a8a60256662dac51240 *gd1982-09-15d2t11.flac
fd66edc8d85c9664124fc7ef791adb46 *gd1982-09-15d2t12.flac

Comments
Add Comment
Other Sources (comments)
combination SBD (Jim Wise)... (3) Master Sondboard Cassette >... (0) flac16; Recording... (0) flac24; Recording... (0) flac16; Recording... (0) flac24; AUD:... (0) flac16; AUD:... (0)
Date User Comment
06/09/2011 charliemiller The pitch needs a -2% adjustment.