Browse Collections Artists Sources   Search Dates

Add Show    List Management    Help


Grateful Dead 09/29/89
Shoreline Amphitheatre, Mountain View, CA
Comments Add Comment    Source Collectors    Add to Collection    Add to Want List    History
Source # 81705 Other Sources
Entered by Matt Vernon
Checksums ffp , flac-md5
Disc Counts 2 / 3
Media Size
Date Circulated
Date Added
01/16/2007
01/16/2007
Source Summary flac16; Recording Info: SBD -> Dat Transfer Info: Dat -> M-Audio DIO2448 -> Samplitude -> Cool Edit Pro -> FLAC All Transfers and Mastering By Charlie Miller 
  Archive
Source Information - Download Text | Download Zip
Grateful Dead - September 29, 1989
Shoreline Amphitheatre - Mountain View, CA

Recording Info:
SBD -> Dat

Transfer Info:
Dat -> M-Audio DIO2448 -> Samplitude -> Cool Edit Pro -> FLAC
(3 Discs Audio / 2 Discs FLAC)

All Transfers and Mastering By Charlie Miller
charliemil[email protected]
January 11, 2007

Patch Info:
The following song sare patched with SBD Cassette Master:
Set 1 Tuning (Complete Track)
Let The Good Times Roll (Complete Track)
8:45 in Bird Song through 5:17 Drums

Notes:
-- 2nd Set is seamless
-- Thanks to Paul Scotton and Joani Walker for the tapes

Set 1:
d1t01 - Tuning
d1t02 - Let The Good Times Roll
d1t03 - Feel Like A Stranger ->
d1t04 - Franklin's Tower
d1t05 - Wang Dang Doodle
d1t06 - Jack-A-Roe
d1t07 - Stuck Inside of Mobile With the Memphis Blues Again
d1t08 - We Can Run
d1t09 - Bird Song ->
d1t10 - The Promised Land

Set 2:
d2t01 - Tuning
d2t02 - China Cat Sunflower ->
d2t03 - I Know You Rider
d2t04 - Blow Away
d2t05 - Equipment Break
d3t01 - Playing in the Band ->
d3t02 - Terrapin Station ->
d3t03 - Drums ->
d3t04 - Space ->
d3t05 - I Need a Miracle ->
d3t06 - Death Don't Have No Mercy ->
d3t07 - Sugar Magnolia

Encore:
d3t08 - The Mighty Quinn (Quinn The Eskimo)


SHNTOOL OUTPUT:
    length     expanded size   cdr  WAVE problems filename
     2:34.01       27167996    ---   --   -----   gd89-09-29d1t01.wav
     4:15.21       45031436    ---   --   -----   gd89-09-29d1t02.wav
     7:15.56       76865756    ---   --   -----   gd89-09-29d1t03.wav
     9:39.16      102173276    ---   --   -----   gd89-09-29d1t04.wav
     6:33.38       69414620    ---   --   -----   gd89-09-29d1t05.wav
     5:10.46       54792236    ---   --   -----   gd89-09-29d1t06.wav
    10:03.68      106529180    ---   --   -----   gd89-09-29d1t07.wav
     6:24.28       67803500    ---   --   -----   gd89-09-29d1t08.wav
    12:38.08      133730060    ---   --   -----   gd89-09-29d1t09.wav
     4:36.38       48775820    ---   --   -----   gd89-09-29d1t10.wav
     2:34.30       27236204    ---   --   -----   gd89-09-29d2t01.wav
     5:45.59       60996812    ---   --   -----   gd89-09-29d2t02.wav
     7:07.02       75327548    ---   --   -----   gd89-09-29d2t03.wav
     8:02.06       85038956    ---   --   -----   gd89-09-29d2t04.wav
     5:22.36       56885516    ---   --   -----   gd89-09-29d2t05.wav
     8:46.38       92875820    ---   --   -----   gd89-09-29d3t01.wav
    15:28.19      163743932    ---   --   -----   gd89-09-29d3t02.wav
     7:08.20       75546284    ---   --   -----   gd89-09-29d3t03.wav
     9:47.14      103579772    ---   --   -----   gd89-09-29d3t04.wav
     4:53.69       51847532    ---   --   -----   gd89-09-29d3t05.wav
     6:36.51       69974396    ---   --   -----   gd89-09-29d3t06.wav
     9:18.66       98586476    ---   --   -----   gd89-09-29d3t07.wav
     4:29.23       47505740    ---   --   -----   gd89-09-29d3t08.wav
   164:32.03     1741428868 B                     (totals for 23 files)
Show Checksums
ffp
gd89-09-29d1t01.flac:31e8fa767ab7c29135717374133dfedd
gd89-09-29d1t02.flac:81b6e45db58ed8c4886b220cb5a34a5b
gd89-09-29d1t03.flac:726452b74d03982806ae3043f33b6284
gd89-09-29d1t04.flac:390da218e8197e515025e2a3103033ac
gd89-09-29d1t05.flac:fd331ddf14334821ada930bbb89388f1
gd89-09-29d1t06.flac:d4f3f09d8875b0eb63a90642e98240e5
gd89-09-29d1t07.flac:96dbfc49970e53a18534ad8ca29e9fc6
gd89-09-29d1t08.flac:fd3173b7fe450c3e5a561718612a00cc
gd89-09-29d1t09.flac:35d89edacf6b35329adf4ac201f0e800
gd89-09-29d1t10.flac:65cb75bcfcf1aae31029a7cdfcf1b89a
gd89-09-29d2t01.flac:c4f1481ece608b00c3a36687af8fc1f1
gd89-09-29d2t02.flac:03e0dcfe489a4af19e0f51bb586f7ce6
gd89-09-29d2t03.flac:72e22ccd0c3e7b524a54948b8aa475bb
gd89-09-29d2t04.flac:2c30ec9af73799b4e02257bb7883eccb
gd89-09-29d2t05.flac:a21dd932ed02c67f19ff8286c32309b1
gd89-09-29d3t01.flac:efd674d82d268c11bbe44889add17260
gd89-09-29d3t02.flac:f9c2dcc9f0638f5eb771e35e73674552
gd89-09-29d3t03.flac:f0d1405206a22c8b7f4a7427f33e835b
gd89-09-29d3t04.flac:5705b0bf8c18b6c217c7be4a0d0b5cad
gd89-09-29d3t05.flac:a9e848b7c77337c34c4b5f3c87ffd3cc
gd89-09-29d3t06.flac:07c87713a6746e551f031d274719f9e1
gd89-09-29d3t07.flac:dec49050f0767cfeb502ed7789cba34a
gd89-09-29d3t08.flac:aad1be83dfe7a7ab9dfa6139d20da0af
flac-md5
d0504bcab3de9ba869e434f15fa1361a *gd89-09-29d1t01.flac
c5b2207fdd0dc959867725774e429690 *gd89-09-29d1t02.flac
2fca885e3541e56fc90120d80cd3b6a0 *gd89-09-29d1t03.flac
5e6d55618686f226bc115d8ffb928fc6 *gd89-09-29d1t04.flac
de0a6085b5bddfc05f9878a264b63d09 *gd89-09-29d1t05.flac
f2bfaefc38626cd6f364524c0a52fa10 *gd89-09-29d1t06.flac
824b691bba2e3ac7545c4145b5ef703e *gd89-09-29d1t07.flac
6c358e1c2dd87355975cc30698d09aa5 *gd89-09-29d1t08.flac
dacd5f83d72bc75e702854f40acdce61 *gd89-09-29d1t09.flac
2f5ed7b25d7fbf4a8f0c17f5d6702083 *gd89-09-29d1t10.flac
d69e5faaf9efce8e178f3c0d947d9144 *gd89-09-29d2t01.flac
277b13ea034008abfba01f9b105b714f *gd89-09-29d2t02.flac
2900c0817abf58398de1306edbe88814 *gd89-09-29d2t03.flac
2a9f09f5c88379cf1981100faae55f9d *gd89-09-29d2t04.flac
ee559087c869f6302307445da02d1438 *gd89-09-29d2t05.flac
18160084c3e433da9b93767976e39f40 *gd89-09-29d3t01.flac
3e2cbfd024d9f86dad01bb50604b6db7 *gd89-09-29d3t02.flac
2b7960ee499e4920f6a2a249653dfc31 *gd89-09-29d3t03.flac
e332950737eb834cde97bf0dacd7cbb6 *gd89-09-29d3t04.flac
5202110c0af8efd30d62b6b933c2055c *gd89-09-29d3t05.flac
be0ab22e4287f786b91f9723751ca05a *gd89-09-29d3t06.flac
3953779ca5b6425ca7531bb1ae045f8f *gd89-09-29d3t07.flac
a2bc6f369ac241e4ab9592511e7fbfc6 *gd89-09-29d3t08.flac

Comments
Add Comment
Other Sources (comments)
Ultramatrix: Master... (2) This is an updated text and... (0) flac16; Recording... (0) flac16; Source: 2... (0) flac16; Source:... (0) flac16; Recording... (0)
Date User Comment
04/07/2007 charlie miller The cassette portion came from Paul and Joani. The Dat portion came from the vault.

cm