Browse Collections Artists Sources   Search Dates

Add Show    List Management    Help


Grateful Dead 09/30/89
Shoreline Amphitheatre, Mountain View, CA
Comments Add Comment    Source Collectors    Add to Collection    Add to Want List    History
Source # 81719 Other Sources
Entered by Matt Vernon
Checksums ffp , flac-md5
Disc Counts 2 / 2
Media Size
Date Circulated
Date Added
01/16/2007
01/16/2007
Source Summary flac16; Recording Info: SBD -> Cassette Master (TDK MA-XG90) Transfer Info: Cassette Master (Tascam 122mkII) -> Apogee MiniMe (24bit/48k) -> Samplitude Professional v8.01 -> FLAC/16 All Transfers and Mastering By Charlie Miller 
  Archive
Source Information - Download Text | Download Zip
Grateful Dead - September 30, 1989
Shoreline Amphitheatre - Mountain View, CA

Recording Info:
SBD -> Cassette Master (TDK MA-XG90)

Transfer Info:
Cassette Master (Tascam 122mkII) -> Apogee MiniMe (24bit/48k) ->
Samplitude Professional v8.01 -> FLAC/16
(2 Discs Audio / 2 Discs FLAC)

All Transfers and Mastering By Charlie Miller
[email protected]
January 9, 2007

Notes:
-- 2nd Set is seamless
-- Some static in Row Jimmy
-- Thanks to Paul Scotton and Joani Walker for the tapes

Set 1:
d1t01 - Tuning
d1t02 - Bertha ->
d1t03 - Greatest Story Ever Told
d1t04 - West L.A. Fadeaway
d1t05 - Queen Jane Approximately
d1t06 - Row Jimmy
d1t07 - Let It Grow

Set 2:
d1t08 - Iko Iko
d2t01 - Estimated Prophet
d2t02 - Truckin' ->
d2t03 - Smokestack Lightnin' ->
d2t04 - Drums ->
d2t05 - Space ->
d2t06 - I Will Take You Home ->
d2t07 - The Wheel ->
d2t08 - All Along The Watchtower ->
d2t09 - Touch Of Grey

Encore:
d2t10 - U.S. Blues


SHNTOOL OUTPUT:
    length     expanded size   cdr  WAVE problems filename
     1:12.17       12740828    ---   --   -----   gd89-09-30d1t01.wav
     6:53.33       72930860    ---   --   -----   gd89-09-30d1t02.wav
     4:46.21       50499836    ---   --   -----   gd89-09-30d1t03.wav
     9:24.31       99562556    ---   --   -----   gd89-09-30d1t04.wav
     6:51.24       72556892    ---   --   -----   gd89-09-30d1t05.wav
    11:10.45      118293884    ---   --   -----   gd89-09-30d1t06.wav
    12:48.27      135538748    ---   --   -----   gd89-09-30d1t07.wav
    10:02.37      106279868    ---   --   -----   gd89-09-30d1t08.wav
    12:22.28      130954700    ---   --   -----   gd89-09-30d2t01.wav
     7:53.51       83557196    ---   --   -----   gd89-09-30d2t02.wav
     6:52.33       72754460    ---   --   -----   gd89-09-30d2t03.wav
     8:27.04       89444252    ---   --   -----   gd89-09-30d2t04.wav
     8:58.32       94978508    ---   --   -----   gd89-09-30d2t05.wav
     4:31.31       47877356    ---   --   -----   gd89-09-30d2t06.wav
     4:32.46       48089036    ---   --   -----   gd89-09-30d2t07.wav
     6:27.66       68422076    ---   --   -----   gd89-09-30d2t08.wav
    11:19.09      119796812    ---   --   -----   gd89-09-30d2t09.wav
     5:58.26       63212396    ---   --   -----   gd89-09-30d2t10.wav
   140:32.36     1487490264 B                     (totals for 18 files)
Show Checksums
ffp
gd89-09-30d1t01.flac:5d799178c73ea8b797eb69e3f1939222
gd89-09-30d1t02.flac:3a1ab1c902024ee20101210f2953e435
gd89-09-30d1t03.flac:5d19e5fe2d90aa233fef499e16cb628e
gd89-09-30d1t04.flac:135f768047410476b0565f04df629c71
gd89-09-30d1t05.flac:9417300b3475b723e030e2730caef46e
gd89-09-30d1t06.flac:040207ad07a5a05caf278a28c27875e2
gd89-09-30d1t07.flac:4246e562aa6eac675bd7a14996d902c7
gd89-09-30d1t08.flac:b5b09013e0a6083ff7afd8bb8002cef8
gd89-09-30d2t01.flac:3d30125b5da497904f04fde8703a8721
gd89-09-30d2t02.flac:e3a4a0f04cfe40af92b11c6ad1267aad
gd89-09-30d2t03.flac:41447209fce560514e8af2be09e02a12
gd89-09-30d2t04.flac:2c460ab54ec93babfcbd037a825abd5f
gd89-09-30d2t05.flac:c3cbf7f6817c3e676c50059c62d452eb
gd89-09-30d2t06.flac:ed8a4a7c6341a1224dceab5006a15c3c
gd89-09-30d2t07.flac:bf6b4376ab2c2971f993fb02b4c2a79e
gd89-09-30d2t08.flac:9d178bc01e31b55f8ffcffa464b22cc4
gd89-09-30d2t09.flac:07be7654e14dcc16556fc17d61da8061
gd89-09-30d2t10.flac:3ecd33079ec322110c99dd6370c8809d
flac-md5
4fa2022c93794f48bcbb2bb7154575a1 *gd89-09-30d1t01.flac
e7448f7dafa331aea36dfcebbbf9e271 *gd89-09-30d1t02.flac
fea62ff7827e4ff9625e15809021dfc1 *gd89-09-30d1t03.flac
4bf2b45b8562f85b4b3bbf7a35cfb10a *gd89-09-30d1t04.flac
4adf8ee04d10b768580130cc9c6ec0ac *gd89-09-30d1t05.flac
90fe2c683f86879aa133a0e02020572b *gd89-09-30d1t06.flac
88f03dd504f2a22b5b46ed24643a5fc3 *gd89-09-30d1t07.flac
55533a2fb616947097dc61d6db874260 *gd89-09-30d1t08.flac
fbff961abdeeb0955c6c44c10c6333bc *gd89-09-30d2t01.flac
7a395fdc704ec4abc9ed29b3daf359e6 *gd89-09-30d2t02.flac
6738245d3465664506767f2f296890c5 *gd89-09-30d2t03.flac
f5254dcf948c9ed572cd55c86012c699 *gd89-09-30d2t04.flac
31f8f8a35df841d62d150da4395e6595 *gd89-09-30d2t05.flac
0eb7877afedc664ac16c56d2389333fa *gd89-09-30d2t06.flac
9976d30841909725bde3b2ba3c8eb84e *gd89-09-30d2t07.flac
4eeba1dc83c8b239cd01db5e30861bcb *gd89-09-30d2t08.flac
3ca50e8cd5e9268004b815b923bbb939 *gd89-09-30d2t09.flac
71aca95be3a06f3fc2952fd0fab9a98e *gd89-09-30d2t10.flac

Comments
Add Comment
Other Sources (comments)
SBD>MC>DAT>CDR; Seeded to... (2) flac16; Source:... (1) flac16/48kHz; Source... (0)
Date User Comment