Browse Collections Artists Sources   Search Dates

Add Show    List Management    Help


Grateful Dead 10/01/89
Shoreline Amphitheatre, Mountain View, CA
Comments Add Comment    Source Collectors    Add to Collection    Add to Want List    History
Source # 81721 Other Sources
Entered by Matt Vernon
Checksums ffp , flac-md5
Disc Counts 2 / 3
Media Size
Date Circulated
Date Added
01/16/2007
01/16/2007
Source Summary flac16; Recording Info: SBD -> Cassette Master (TDK MA-XG90) Transfer Info: Cassette Master (Tascam 122mkII) -> Apogee MiniMe (24bit/48k) -> Samplitude Professional v8.01 -> FLAC/16 All Transfers and Mastering By Charlie Miller 
  Archive
Source Information - Download Text | Download Zip
Grateful Dead - October 1, 1989
Shoreline Amphitheatre - Mountain View, CA

Recording Info:
SBD -> Cassette Master (TDK MA-XG90)

Transfer Info:
Cassette Master (Tascam 122mkII) -> Apogee MiniMe (24bit/48k) ->
Samplitude Professional v8.01 -> FLAC/16
(3 Discs Audio / 2 Discs FLAC)

All Transfers and Mastering By Charlie Miller
[email protected]
January 9, 2007

Notes:
-- 2nd Set is seamless
-- A 2nd SBD Cass Master was used to patch the tape flip
-- Thanks to Paul Scotton and Joani Walker for the tapes

Set 1:
d1t01 - Tuning
d1t02 - Jack Straw
d1t03 - Ramble On Rose
d1t04 - Walkin' Blues
d1t05 - Built To Last
d1t06 - When I Paint My Masterpiece
d1t07 - Just A Little Light
d1t08 - Cassidy ->
d1t09 - Don't Ease Me In

Set 2:
d2t01 - Tuning
d2t02 - Hell In A Bucket ->
d2t03 - Scarlet Begonias ->
d2t04 - Man Smart (Woman Smarter)
d3t01 - He's Gone ->
d3t02 - Drums ->
d3t03 - Space ->
d3t04 - The Other One ->
d3t05 - Wharf Rat ->
d3t06 - Turn On Your Lovelight

Encore:
d3t07 - Knockin' On Heaven's Door


SHNTOOL OUTPUT:
    length     expanded size   cdr  WAVE problems filename
     2:27.59       26069612    ---   --   -----   gd89-10-01d1t01.wav
     7:49.09       82752812    ---   --   -----   gd89-10-01d1t02.wav
     9:30.15      100583324    ---   --   -----   gd89-10-01d1t03.wav
     8:09.26       86320796    ---   --   -----   gd89-10-01d1t04.wav
     6:26.64       68240972    ---   --   -----   gd89-10-01d1t05.wav
     7:01.36       74349116    ---   --   -----   gd89-10-01d1t06.wav
     6:00.45       63609884    ---   --   -----   gd89-10-01d1t07.wav
     7:04.57       74927708    ---   --   -----   gd89-10-01d1t08.wav
     4:07.56       43702556    ---   --   -----   gd89-10-01d1t09.wav
     2:18.52       24465548    ---   --   -----   gd89-10-01d2t01.wav
     6:34.67       69659228    ---   --   -----   gd89-10-01d2t02.wav
    10:59.29      116315852    ---   --   -----   gd89-10-01d2t03.wav
     7:51.66       83239676    ---   --   -----   gd89-10-01d2t04.wav
    13:28.69      142693532    ---   --   -----   gd89-10-01d3t01.wav
     6:03.04       64042652    ---   --   -----   gd89-10-01d3t02.wav
    12:11.44      129051932    ---   --   -----   gd89-10-01d3t03.wav
     8:41.74       92078492    ---   --   -----   gd89-10-01d3t04.wav
    10:33.60      111802364    ---   --   -----   gd89-10-01d3t05.wav
    10:47.42      114229628    ---   --   -----   gd89-10-01d3t06.wav
     7:52.10       83284364    ---   --   -----   gd89-10-01d3t07.wav
   156:01.59     1651420048 B                     (totals for 20 files)
Show Checksums
ffp
gd89-10-01d1t01.flac:2ceb721a998c4dcf80a1b09d936f746b
gd89-10-01d1t02.flac:31c33e5150dee156263af3cc4b32864f
gd89-10-01d1t03.flac:3eb15046bdc4529b804be72b9dd2a4ec
gd89-10-01d1t04.flac:7099bff3911ff51d668c08842347bac7
gd89-10-01d1t05.flac:65b3feba74c5cbc2acd27bec6de3d1c2
gd89-10-01d1t06.flac:cea1d2d394ee16da6334f7b345c0102b
gd89-10-01d1t07.flac:07ebf6a1f059f1162256960b9261040b
gd89-10-01d1t08.flac:36de492ea81f86467ebc384d9394c71b
gd89-10-01d1t09.flac:3a937f15428764b9a44667ef0c229e15
gd89-10-01d2t01.flac:bfdd8c6d71e4a54af61407a29af9faf3
gd89-10-01d2t02.flac:b9d4bee9986be1824367323c0376f7f4
gd89-10-01d2t03.flac:48431313cfa2fce5a01859cdd907743f
gd89-10-01d2t04.flac:ff7a10b2da22fd0d14c4051116e46677
gd89-10-01d3t01.flac:035acded4f40abfa8c440f2d3f511f0d
gd89-10-01d3t02.flac:33fabfa21dbbd51ecd12a74ea706be09
gd89-10-01d3t03.flac:492dc726f123387a7029ec676c952d6e
gd89-10-01d3t04.flac:9955a19a3db312412f0ce81ea263b4c1
gd89-10-01d3t05.flac:637e67d3a318b0092ce4f5419c5ed168
gd89-10-01d3t06.flac:74b4ff85c709b100997680a0f021649c
gd89-10-01d3t07.flac:c3ca55d6b7e1d7d53d676c704aff5912
flac-md5
16152c9724272ebc95f4e217e4356ca8 *gd89-10-01d1t01.flac
00d400dc010c717bab7ec902d5966583 *gd89-10-01d1t02.flac
5e57b0873b88558df4a720f983a64795 *gd89-10-01d1t03.flac
c2b44a4f80ed82f52409950570319d56 *gd89-10-01d1t04.flac
8a05f85d54329245576c2a7e4b962e1a *gd89-10-01d1t05.flac
fbb85c6f921e6f017a11287f278785b8 *gd89-10-01d1t06.flac
5fc2a30a33866d96c92375a87d899ae1 *gd89-10-01d1t07.flac
9c239494b43912d67f6f479b478df11e *gd89-10-01d1t08.flac
80596693c611812602e45610ae02234d *gd89-10-01d1t09.flac
694b13decac95f1849205040830f93c5 *gd89-10-01d2t01.flac
0aa6581f7958818115170037970bf745 *gd89-10-01d2t02.flac
a1bcaea758b45aafecce9b103c99c7b2 *gd89-10-01d2t03.flac
2194a1aa4edfc9c4379a51aae2a46c2b *gd89-10-01d2t04.flac
12180a1c58e07e9d0a20b577f0048e29 *gd89-10-01d3t01.flac
d2459640e0354e0c2c4ca436dfdd07ab *gd89-10-01d3t02.flac
43886d27065f966998954b8983e1b0b3 *gd89-10-01d3t03.flac
e2dae91cda461a58c6eac54fcbdb72c4 *gd89-10-01d3t04.flac
463e107fc9c26efd99629586ce000508 *gd89-10-01d3t05.flac
ca515ad86d14044e9400f859300daeef *gd89-10-01d3t06.flac
33ff8e5f79088d40bd94528166f6cf60 *gd89-10-01d3t07.flac

Comments
Add Comment
Other Sources (comments)
AUD>MC>C>CDR; Seeded to... (1) flac16; Unknown SBD... (0) flac16; Set 2... (0) flac16; Recording... (0) flac24; Recording... (0) flac16/48kHz; Source... (0) flac16; Recording... (0)
Date User Comment
06/20/2018 [email protected] This runs 1% slow - upgrade in circulation