Browse Collections Artists Sources   Search Dates

Add Show    List Management    Help


Grateful Dead 07/02/89
Sullivan Stadium, Foxboro, MA
Comments Add Comment    Source Collectors    Add to Collection    Add to Want List    History
Source # 81855 Other Sources
Entered by Matt Vernon
Checksums ffp , flac-md5
Disc Counts 0 / 0
Media Size
Date Circulated
Date Added
01/19/2007
01/19/2007
Source Summary flac24/96; Taper: Danny Thomson Source: FOB Nak700's > Uher 240 > Master Cassette Maxell XLII 90min. Transfer: Playback on Nak DR-1 > Apogee 200 Rosetta > Firewire > Apple G5 > Bias Peak (24 bit/96 KHz WAV) by D.McCabe. Mastering: Wavelab 5 > Waves L3 Multimaximizer (threshold -2.3 dB/ceiling -0.1 dB) > CDWAV 1.9 > FLAC (level 8), by C.Ladner. 
  Archive
Source Information - Download Text | Download Zip
Grateful Dead
07/02/1989
Sullivan Stadium
Foxboro, MA


MotB Release: 0007/24b


Taper:  Danny Thomson
Source:  FOB Nak700's > Uher 240 > Master Cassette Maxell XLII 90min.
Transfer: Playback on Nak DR-1 > Apogee 200 Rosetta > Firewire > Apple G5 > Bias Peak (24 bit/96 KHz WAV) by D.McCabe.
Mastering:  Wavelab 5 > Waves L3 Multimaximizer (threshold -2.3 dB/ceiling -0.1 dB) > CDWAV 1.9 > FLAC (level 8), by C.Ladner.


Set I
01  crowd >
02  Playin' In The Band >
03  Crazy Fingers >
04  Wang Dang Doodle
05  We Can Run But We Can't Hide
06  Tennessee Jed
07  Queen Jane Approximately
08  To Lay Me Down
09  Cassidy
10  Don't Ease Me In

Set II
01  Friend Of The Devil
02  Truckin' >
03  He's Gone >
04  Eyes Of The World >
05  Drums >
06  Space > Jam
07  The Wheel >
08  Dear Mr. Fantasy >
09  Hey Jude Reprise >
10  Sugar Magnolia

Encore
01  The Mighty Quinn


Mastering Notes:
- Encore from FOB Sennheiser 441s Master AUD from Bill Koucky, transferred on Nak DR-2 > Presonus Firebox @ 24/96, wavelab.
- First notes of FOTD/start of second set missing.  On Bill's tape this part is also not recorded well with what sounds like a scramble to get things rolling again.
- Second set flip at the 45:12 mark during a lull, crossfaded into seamlessness - currently at the 3:12 mark of space, s2t06.

shntool output:
    length     expanded size   cdr  WAVE problems filename
     2:14.48       23750540    ---   --   ---xx   gd1989-07-02.motb.0007.s1t01.24b.flac
     5:21.05       56636204    ---   --   ---xx   gd1989-07-02.motb.0007.s1t02.24b.flac
     7:38.70       80955884    ---   --   ---xx   gd1989-07-02.motb.0007.s1t03.24b.flac
     8:10.08       86454860    ---   --   ---xx   gd1989-07-02.motb.0007.s1t04.24b.flac
     5:24.22       57205388    ---   --   ---xx   gd1989-07-02.motb.0007.s1t05.24b.flac
     8:15.34       87398012    ---   --   ---xx   gd1989-07-02.motb.0007.s1t06.24b.flac
     6:37.63       70179020    ---   --   ---xx   gd1989-07-02.motb.0007.s1t07.24b.flac
    10:57.51      116014796    ---   --   ---xx   gd1989-07-02.motb.0007.s1t08.24b.flac
     6:01.53       63805100    ---   --   ---xx   gd1989-07-02.motb.0007.s1t09.24b.flac
     3:11.34       33772412    ---   --   ---xx   gd1989-07-02.motb.0007.s1t10.24b.flac
    11:24.13      120688220    ---   --   ---xx   gd1989-07-02.motb.0007.s2t01.24b.flac
     7:05.21       75019436    ---   --   ---xx   gd1989-07-02.motb.0007.s2t02.24b.flac
    13:56.09      147491612    ---   --   ---xx   gd1989-07-02.motb.0007.s2t03.24b.flac
    10:44.04      113611052    ---   --   ---xx   gd1989-07-02.motb.0007.s2t04.24b.flac
     6:50.39       72415772    ---   --   ---xx   gd1989-07-02.motb.0007.s2t05.24b.flac
    11:27.24      121243292    ---   --   ---xx   gd1989-07-02.motb.0007.s2t06.24b.flac
     5:02.31       53345756    ---   --   ---xx   gd1989-07-02.motb.0007.s2t07.24b.flac
     6:58.42       73834028    ---   --   ---xx   gd1989-07-02.motb.0007.s2t08.24b.flac
     3:50.50       40689644    ---   --   ---xx   gd1989-07-02.motb.0007.s2t09.24b.flac
     9:15.57       98036108    ---   --   ---xx   gd1989-07-02.motb.0007.s2t10.24b.flac
     5:21.59       56763212    ---   --   ---xx   gd1989-07-02.motb.0007.snt01.24b.flac
   155:49.62     1649310348 B                     (totals for 21 files, 0.6246 overall compression ratio)

Show Checksums
ffp
gd1989-07-02.motb.0007.s1t01.24b.flac:3cce19a174492878f4466f16e4aba614
gd1989-07-02.motb.0007.s1t02.24b.flac:85277a063624f2d0db6353484aec2f1b
gd1989-07-02.motb.0007.s1t03.24b.flac:12dd3a8116ed3a3840405da32ba54195
gd1989-07-02.motb.0007.s1t04.24b.flac:1db221d614f777795da79d2ffc09423e
gd1989-07-02.motb.0007.s1t05.24b.flac:a1a07fb04ccd7005f11efabe35f0787f
gd1989-07-02.motb.0007.s1t06.24b.flac:6d8d7f1fa7db71a79ac012130a9cd6ea
gd1989-07-02.motb.0007.s1t07.24b.flac:5603f46de67b24d8a700c3453071691a
gd1989-07-02.motb.0007.s1t08.24b.flac:8019106c4713f1d4f31a5f4fdf97942a
gd1989-07-02.motb.0007.s1t09.24b.flac:a9b36d0dc2eb2a509fa68c2de54ca170
gd1989-07-02.motb.0007.s1t10.24b.flac:7b87e0342e525b485bd624000552e42e
gd1989-07-02.motb.0007.s2t01.24b.flac:19c26ea53618dc0fa445d3b7e500f30f
gd1989-07-02.motb.0007.s2t02.24b.flac:343ec30d9defdada5335e9a002dfcac8
gd1989-07-02.motb.0007.s2t03.24b.flac:96f97d402467d62e06a639094e7a1aab
gd1989-07-02.motb.0007.s2t04.24b.flac:7e370bef15dbab63d4872a8836aa0166
gd1989-07-02.motb.0007.s2t05.24b.flac:1cf1344506e76683a3c36cc19e8df8d7
gd1989-07-02.motb.0007.s2t06.24b.flac:317c0fba000ce86055d2cfbfff9bf23b
gd1989-07-02.motb.0007.s2t07.24b.flac:455140cc8d6d189fa84844682b975869
gd1989-07-02.motb.0007.s2t08.24b.flac:fc21a47522c44ed626908689cca520cb
gd1989-07-02.motb.0007.s2t09.24b.flac:e34e8bc5d0bb73d59c22b99e1a31741a
gd1989-07-02.motb.0007.s2t10.24b.flac:9ae8e6479a6b1e0f7f6cc904b9fa8e24
gd1989-07-02.motb.0007.snt01.24b.flac:633de85e7b76d79dcd233a8d524bfb3b
flac-md5
c854d750633c8d49886ea8374f09d1d5 *gd1989-07-02.motb.0007.s1t01.24b.flac
5feb47ef38c1c5d5399fde2e34b2fb44 *gd1989-07-02.motb.0007.s1t02.24b.flac
f11da799fcfc2a14e6b25a627e44b8cf *gd1989-07-02.motb.0007.s1t03.24b.flac
2e5d83b36c247095928c761478275507 *gd1989-07-02.motb.0007.s1t04.24b.flac
8c982fa64e17dad0d7088bfa89c57216 *gd1989-07-02.motb.0007.s1t05.24b.flac
41b4067cee8827c0def482fd7e122e21 *gd1989-07-02.motb.0007.s1t06.24b.flac
d336fd8985b7653aed9a49c40b79bbb5 *gd1989-07-02.motb.0007.s1t07.24b.flac
399d981b2e02782d9c2249b1e1ba9e2e *gd1989-07-02.motb.0007.s1t08.24b.flac
2d7faa454ce0ddaa7045cbd649fcc11b *gd1989-07-02.motb.0007.s1t09.24b.flac
2f770611c2091baaa792f64ac9a732ad *gd1989-07-02.motb.0007.s1t10.24b.flac
6f9f785700ac6b667b1204a758f23daf *gd1989-07-02.motb.0007.s2t01.24b.flac
b3818c51fd32b9292831321297065704 *gd1989-07-02.motb.0007.s2t02.24b.flac
b23a8ac94fe3f1bedbdd3429bc92e690 *gd1989-07-02.motb.0007.s2t03.24b.flac
68763a704e2432c19cdf24489c3a6362 *gd1989-07-02.motb.0007.s2t04.24b.flac
2a88d9a4237e53ea8d2e628f5308e940 *gd1989-07-02.motb.0007.s2t05.24b.flac
e31af86fb96359c9c0c11180362ccb57 *gd1989-07-02.motb.0007.s2t06.24b.flac
f41568c608bc4e452ee2ed86df4c595a *gd1989-07-02.motb.0007.s2t07.24b.flac
8f7a0a7aa9a97261e6955427b3a474bc *gd1989-07-02.motb.0007.s2t08.24b.flac
65f1982078e5099399a88af4d9f497a5 *gd1989-07-02.motb.0007.s2t09.24b.flac
7378db0cd36ab2d63356b75e7a73495c *gd1989-07-02.motb.0007.s2t10.24b.flac
2d7512fb57fa4d8a6a4822f26e1b73a3 *gd1989-07-02.motb.0007.snt01.24b.flac

Comments
Add Comment
Other Sources (comments)
FOB Schoeps CMC42s spaced... (2) Digital Audience - Jill &... (0) flac16; AKG... (1) flac16; FOB Schoeps... (0) flac16; SRC: FOB... (0) flac24; SRC: FOB... (1) flac16; Source:... (0) flac24; FOB AUD:... (0) flac16; FOB AUD:... (0) flac16; Nakamichi... (0) flac16; Source:... (0) flac16; Source: AKG... (1) flac16; Source:... (0) flac16; Ted Mattes... (0) flac24; Recording... (0) flac16; Recording... (0)
Date User Comment