Browse Collections Artists Sources   Search Dates

Add Show    List Management    Help


Grateful Dead 09/24/87
The Spectrum, Philadelphia, PA
Comments Add Comment    Source Collectors    Add to Collection    Add to Want List    History
Source # 81857 Other Sources
Entered by Matt Vernon
Checksums ffp , flac-md5
Disc Counts 2 / 2
Media Size
Date Circulated
Date Added
01/19/2007
01/19/2007
Source Summary flac16; AUD Source: Nakamichi CM-300's with CP-4 shotgun capsules > Marantz 420 cassette deck, with Dolby On. Set up in the taper's section. Taped and transferred thru CDR by Jon Pasternak. Transfer: MAC > Nakamichi Dragon (Dolby on) > Tascam CDRW-5000 > CDR > EAC > Soundforge > CD-Wave > TLH v.1.0.0.72 (for SBE-OK, checksums and FLAC compression) > FLAC 
  Archive
Source Information - Download Text | Download Zip
GRATEFUL DEAD
The Spectrum
Philadelphia PA
09-24-1987

Disc One - Set One & Encore (67:25)

01 crowd & tuning
02 Touch of Grey >
03 Minglewood Blues
04 High Time
05 Me & My Uncle >
06 almost mexicali >
07 Big River >
08 Big Boss Man
09 Brother Esau >
10 Birdsong >
11 Promised Land
-- encore --
12 Knockin' On Heaven's Door//

Disc Two - Set Two (78:02)

01 crowd & tuning
02 Box of Rain >
03 Iko Iko
04 Hell in a Bucket >
05 Fire on the Mountain >
06 Drums >
07 Spa//ce >
08 The Other One >
09 Black Peter >
10 Throwing Stones >
11 Turn on Your Lovelight

AUD Source: Nakamichi CM-300's with CP-4 shotgun capsules > Marantz 420 cassette deck, with Dolby On. Set up in the taper's section. Taped and transferred thru CDR by Jon Pasternak.

Transfer: MAC > Nakamichi Dragon (Dolby on) > Tascam CDRW-5000 > CDR > EAC > Soundforge > CD-Wave > TLH v.1.0.0.72 (for SBE-OK, checksums and FLAC compression) > FLAC, January 2007.

Notes:
- Slight bit of distortion at start of Box of Rain.
- Tape flip in Space at 6:30.582 which has been mended together.
- Encore cuts near the end, approx one minute missing.
- Soundforge used to make fades and clean-up around the tape flips.

shntool

    length     expanded size   cdr  WAVE problems filename
     0:39.50        6997244    ---   --   ---xx   gd1987-09-24d1t01.flac
     6:25.51       68033996    ---   --   ---xx   gd1987-09-24d1t02.flac
     8:14.17       87181628    ---   --   ---xx   gd1987-09-24d1t03.flac
     8:51.34       93748412    ---   --   ---xx   gd1987-09-24d1t04.flac
     3:07.16       33024476    ---   --   ---xx   gd1987-09-24d1t05.flac
     0:35.03        6181100    ---   --   ---xx   gd1987-09-24d1t06.flac
     4:28.56       47406956    ---   --   ---xx   gd1987-09-24d1t07.flac
     7:07.60       75463964    ---   --   ---xx   gd1987-09-24d1t08.flac
     4:29.10       47475164    ---   --   ---xx   gd1987-09-24d1t09.flac
    10:15.60      108627164    ---   --   ---xx   gd1987-09-24d1t10.flac
     4:36.54       48813452    ---   --   ---xx   gd1987-09-24d1t11.flac
     8:33.51       90613196    ---   --   ---xx   gd1987-09-24d1t12.flac
     1:03.31       11186156    ---   --   ---xx   gd1987-09-24d2t01.flac
     5:00.10       52943564    ---   --   ---xx   gd1987-09-24d2t02.flac
     6:32.35       69231164    ---   --   ---xx   gd1987-09-24d2t03.flac
     6:37.56       70162556    ---   --   ---xx   gd1987-09-24d2t04.flac
     9:39.49      102250892    ---   --   ---xx   gd1987-09-24d2t05.flac
    10:05.37      106809068    ---   --   ---xx   gd1987-09-24d2t06.flac
     8:41.27       91967948    ---   --   ---xx   gd1987-09-24d2t07.flac
     6:52.02       72681548    ---   --   ---xx   gd1987-09-24d2t08.flac
     8:05.22       85605788    ---   --   ---xx   gd1987-09-24d2t09.flac
     9:00.60       95397164    ---   --   ---xx   gd1987-09-24d2t10.flac
     6:23.50       67678844    ---   --   ---xx   gd1987-09-24d2t11.flac
   145:27.16     1539481444 B                     (totals for 23 files, 0.6143 overall compression ratio)

There were no sector boundary errors.
Show Checksums
ffp
gd1987-09-24d1t01.flac:ff7a18c55e07d33859c7a5d26ba30554
gd1987-09-24d1t02.flac:d6f859dbddfde18a337b2c479e5417dc
gd1987-09-24d1t03.flac:ef45ddf0c9c85f9aaa97afe5fff07a61
gd1987-09-24d1t04.flac:c49ec57d6e5589f00816fa169caea16f
gd1987-09-24d1t05.flac:35a36a8a632ec1e28cbb984329318d74
gd1987-09-24d1t06.flac:3f3dde31d9a2b3f3d165e157f076286b
gd1987-09-24d1t07.flac:38ee81ed5d8fb43a78a46388542d792b
gd1987-09-24d1t08.flac:0eaf1ed676d1fb1e1b0ea8ab40b5d8af
gd1987-09-24d1t09.flac:e67ce209256462b6e981394f1ed538d2
gd1987-09-24d1t10.flac:3fb7c098f9e7b03f1c94efdb3f71839e
gd1987-09-24d1t11.flac:02f4b42cf9fc5330101d5ff3547f2454
gd1987-09-24d1t12.flac:cdbb43e96dc4e0548025b9668cb513c5
gd1987-09-24d2t01.flac:a65aeb21fa95f3a244f45e1ce1026352
gd1987-09-24d2t02.flac:f67f1dd5a46b0b1e7ee371c740deccc7
gd1987-09-24d2t03.flac:25d0883bc8241adaae9d8a955ced0e8e
gd1987-09-24d2t04.flac:a197b431878cb442a28f3120a4150014
gd1987-09-24d2t05.flac:fc37dd752ead06c16f24c5c3a97a4a1d
gd1987-09-24d2t06.flac:75d7557c2a7a7c9cc9b82dff66e9cba1
gd1987-09-24d2t07.flac:a8e33918fcd5ac0b00886b81b9316181
gd1987-09-24d2t08.flac:d8c0e9efff3e328e22bef6eea72c9f6f
gd1987-09-24d2t09.flac:c57a20719be01678f48aad8ee89c53af
gd1987-09-24d2t10.flac:1b00656b5cd52479a342f5ab7f5018b0
gd1987-09-24d2t11.flac:e65d8ffda0536cffd61ef161860e14bf
flac-md5
045425c3ddfa48fc62a6f8f87aa03204 *gd1987-09-24d1t01.flac
140e2493076fa4988babf361f92bda78 *gd1987-09-24d1t02.flac
e3c1064c20d4955b221276e9f7162db6 *gd1987-09-24d1t03.flac
1596ad02bd3581da1e8f47aea9c4805b *gd1987-09-24d1t04.flac
c932ab3861e4d6d3fb78b6fccff3b627 *gd1987-09-24d1t05.flac
14cbc1e813c43b2dfd8b1d9b71a0feff *gd1987-09-24d1t06.flac
273e9ef88b10b954b669da5f0b49cca0 *gd1987-09-24d1t07.flac
0710c33be0eaf0181d74b0fc1bdb0a41 *gd1987-09-24d1t08.flac
fcf4052da5b557c64cc460954320ff0f *gd1987-09-24d1t09.flac
a8b9f6afec6e523f6382b8d623b9090f *gd1987-09-24d1t10.flac
36c0cdd23778bb4bfb47f8c43963f6e4 *gd1987-09-24d1t11.flac
ce3537c7aeb2b9f79fcefaab0303004d *gd1987-09-24d1t12.flac
addf4315c270b5b1d21df7e859f0ace4 *gd1987-09-24d2t01.flac
035e212528e6cd246e2521ac00c33edf *gd1987-09-24d2t02.flac
b64fc986fe0b7ba327127763bf65c258 *gd1987-09-24d2t03.flac
f3a5e7a37b88a51bb542481b716e7d92 *gd1987-09-24d2t04.flac
f6b9547f6051db99ee62f83026111aee *gd1987-09-24d2t05.flac
7bed6d65327c54a250058ccdab936396 *gd1987-09-24d2t06.flac
4fb60f482417d0bd622c07584dada257 *gd1987-09-24d2t07.flac
7fa4b6ae18ab797149940e04c6e25294 *gd1987-09-24d2t08.flac
ea52b3b3d6437884899748001f0f1cd0 *gd1987-09-24d2t09.flac
14b43653268abda9715a6babd16c8a47 *gd1987-09-24d2t10.flac
d51d6f18269761ce3c968d1d0fbbaca6 *gd1987-09-24d2t11.flac

Comments
Add Comment
Other Sources (comments)
Pre FM> HiFi VHS> CDr; via... (2) SBD>DAT>Standalone CD... (3) flac16; taper ; Joe... (0) flac16; Recording... (1) flac16; Recording... (0) flac16; source: 2... (0) flac24/44.1kHz; Set... (0) flac16; Set 2 Robert... (0)
Date User Comment