Browse Collections Artists Sources   Search Dates

Add Show    List Management    Help


Grateful Dead 03/23/91
Knickerbocker Arena, Albany, NY
Comments Add Comment    Source Collectors    Add to Collection    Add to Want List    History
Source # 81869 Other Sources
Entered by Matt Vernon
Checksums ffp , flac-md5
Disc Counts 2 / 2
Media Size
Date Circulated
Date Added
01/20/2007
01/20/2007
Source Summary flac16; Recorded by B.Koucky, patched out of B.Glassberg. Source: FOB Nak 700s > Sony D5 > Type IV cassette (Maxell MX100s), no Dolby during recording. Transfer and mastering: MAC playback on Nakamichi CR-7A with manually adjusted azmimuth > Presonus Firebox Neutrik inputs > Firewire/XP Pro > Wavelab 5, recorded as 24 bit 96 KHz PCM WAV > Waves L3 Multimaximizer (-1.7 dB/-0.1 ceiling > rendered to 16 bit/44.1 KHz WAV using UV22 HR, normal/no autoblack > CDWAV 1.9 > FLAC (level 8) by C.Ladner 
  Archive
Source Information - Download Text | Download Zip
Grateful Dead
03/23/1991
Knickerbocker Arena
Albany, NY

Recorded by B.Koucky, patched out of B.Glassberg.
Source:  FOB Nak 700s > Sony D5 > Type IV cassette (Maxell MX100s), no Dolby during recording.
Transfer and mastering:  MAC playback on Nakamichi CR-7A with manually adjusted azmimuth > Presonus Firebox Neutrik inputs > Firewire/XP Pro > Wavelab 5, recorded as 24 bit 96 KHz PCM WAV > Waves L3 Multimaximizer (-1.7 dB/-0.1 ceiling > rendered to 16 bit/44.1 KHz WAV using UV22 HR, normal/no autoblack > CDWAV 1.9 > FLAC (level 8) by C.Ladner.  Seeded by the Green Mountain Bros, 1/2007.

DISC I - SET I
01  crowd
02  Jack Straw
03  Bertha
04  Walkin' Blues
05  Friend Of The Devil
06  When I Paint My Masterpiece
07  Loser
08  Cassidy
09  New Speedway Boogie
SET II
10  Iko Iko
11  Saint Of Circumstance

DISC II - SET II
01  Ship Of Fools
02  Playing In The Band > Jam >
03  Drums >
04  Space >
05  All Along The Watchtower >
06  Morning Dew
07  One More Saturday Night
08  encore call
Encore
09  Knockin' On Heaven's Door

Comments:
All flips/pauses were crossfaded.  Expertly timed short flip in Space.

SHNTOOL LEN OUTPUT:
    length     expanded size   cdr  WAVE problems filename
     7:42.35       81579164    ---   --   ---xx   gd1991-03-23d1t01.flac
     7:19.03       77446700    ---   --   ---xx   gd1991-03-23d1t02.flac
     7:17.01       77089196    ---   --   ---xx   gd1991-03-23d1t03.flac
    10:16.51      108782396    ---   --   ---xx   gd1991-03-23d1t04.flac
     6:06.21       64611836    ---   --   ---xx   gd1991-03-23d1t05.flac
     8:20.51       88319996    ---   --   ---xx   gd1991-03-23d1t06.flac
     6:52.03       72683900    ---   --   ---xx   gd1991-03-23d1t07.flac
     7:15.58       76870460    ---   --   ---xx   gd1991-03-23d1t08.flac
     0:56.69       10040732    ---   --   ---xx   gd1991-03-23d1t09.flac
     9:05.67       96295628    ---   --   ---xx   gd1991-03-23d1t10.flac
     7:13.69       76543532    ---   --   ---xx   gd1991-03-23d1t11.flac
     7:23.07       78161708    ---   --   ---xx   gd1991-03-23d2t01.flac
    14:47.04      156476252    ---   --   ---xx   gd1991-03-23d2t02.flac
     8:32.63       90465020    ---   --   ---xx   gd1991-03-23d2t03.flac
     9:43.52      102963548    ---   --   ---xx   gd1991-03-23d2t04.flac
     8:28.09       89632412    ---   --   ---xx   gd1991-03-23d2t05.flac
    12:15.69      129816332    ---   --   ---xx   gd1991-03-23d2t06.flac
     5:29.04       58045052    ---   --   ---xx   gd1991-03-23d2t07.flac
     1:05.37       11553068    ---   --   ---xx   gd1991-03-23d2t08.flac
     8:42.31       92153756    ---   --   ---xx   gd1991-03-23d2t09.flac
   154:54.29     1639530688 B                     (totals for 20 files, 0.6216 overall compression ratio)
Show Checksums
ffp
gd1991-03-23d1t01.flac:8a3ff7202bcc32f37d1ef2912812d458
gd1991-03-23d1t02.flac:ff79c04854d2944043bb3120823a12e0
gd1991-03-23d1t03.flac:52737929c67513e05468dd78087314e0
gd1991-03-23d1t04.flac:ef57042e1db2f60e9ba71aacca35686e
gd1991-03-23d1t05.flac:964aaf3a99246a39133ccaea1d33c8e9
gd1991-03-23d1t06.flac:29f74e4aa5f4d79f872e05b693d956a3
gd1991-03-23d1t07.flac:91d35d753a0719c6dd4c2b28e9d5567b
gd1991-03-23d1t08.flac:0dc6d97208b8d1bcbe45ff953983206f
gd1991-03-23d1t09.flac:0759e9f17044f15661b02747227921f5
gd1991-03-23d1t10.flac:2dedf46bc756dec236fa8ca5a84b0dc8
gd1991-03-23d1t11.flac:4619dba09e735e1f46b23c28bc28474b
gd1991-03-23d2t01.flac:5bf685e0004ce5d728e01ec684779de1
gd1991-03-23d2t02.flac:1cc038a739c503c2611ccae9824b3141
gd1991-03-23d2t03.flac:ed9fb51409af2cd60b7c62549845e5ad
gd1991-03-23d2t04.flac:7e5a29e60be57ea36ae4dc0a4e9d9529
gd1991-03-23d2t05.flac:148ca0408c54b5c8789d15720d22f48c
gd1991-03-23d2t06.flac:2d8e6845f203f4c017b6693887be8f84
gd1991-03-23d2t07.flac:0f012ec52db060a30e14123fd5257017
gd1991-03-23d2t08.flac:2c6b31ef0c64fd37bf1924dbbd0dc341
gd1991-03-23d2t09.flac:caf075f1a95f7108960f80e4028467bd
flac-md5
20a66770bf7f06dac5962b133d70df70 *gd1991-03-23d1t01.flac
21983da5f89d46caf09d3a78b9feca54 *gd1991-03-23d1t02.flac
3a61fe999dc778b837d0bf66e007fd4e *gd1991-03-23d1t03.flac
d01d1aafe163ba082e202e5200629045 *gd1991-03-23d1t04.flac
a7babbdc96bdbc180eef46aacf6bb190 *gd1991-03-23d1t05.flac
f24029bcb34b647ce47726569a585ce8 *gd1991-03-23d1t06.flac
4294b188a42cc915df40e444995a22b0 *gd1991-03-23d1t07.flac
208369a3568aca4233d34a8802fa7d3a *gd1991-03-23d1t08.flac
b5ab3947e125bb6e2f20b16b846f76d3 *gd1991-03-23d1t09.flac
6bf133e43dec40b040217bd6b4dc67f1 *gd1991-03-23d1t10.flac
fe36fe7d68f91ff4c04a2d77d2cb6421 *gd1991-03-23d1t11.flac
7d2af8dfb0c4aa1356b80cc651eb95ef *gd1991-03-23d2t01.flac
587510772ee31c6439e7f3cb45dd24a6 *gd1991-03-23d2t02.flac
8fdbf1585b5e3e5abd8cb4dbd547153b *gd1991-03-23d2t03.flac
e41b7eb886bde30c579fc22a5b696706 *gd1991-03-23d2t04.flac
ef5718231a729fa2d1e28a193e2f3a32 *gd1991-03-23d2t05.flac
b9a31a50f9138329c5f6316d8b87b96e *gd1991-03-23d2t06.flac
a57d4469fbc71424cfb66a74eb3dcc57 *gd1991-03-23d2t07.flac
22c40cc856f36e417ba5853ff9fcf9b0 *gd1991-03-23d2t08.flac
f89824965e4d038be902cdc291788389 *gd1991-03-23d2t09.flac

Comments
Add Comment
Other Sources (comments)
AUD: Schoeps CMC 34?s>DAT;... (0) flac16; AUD:... (0) flac16; Recording... (0) flac16; Sennheiser... (0) flac16; Master... (0) flac24; Master... (0)
Date User Comment