Browse Collections Artists Sources   Search Dates

Add Show    List Management    Help


Sounds of San Francisco 01/04/07
Jam Cruise 5 - Teatro Del'Opera, MSC Opera, Ocean
Comments Add Comment    Source Collectors    Add to Collection    Add to Want List    History
Source # 81917 Other Sources
Entered by ziko
Checksums ffp
Disc Counts 1 / 2
Media Size
Date Circulated
Date Added
01/13/07
01/22/2007
Source Summary Source: Schoeps mk21 (DFC/NOS/FOB)-> kc5-> cmc6xt-> SD722 (24/48)-> CD Wave-> Wavelab (16/44)-> FLAC Frontend (Level 6)-> FLAC; Taper: Chris Imburgia 
Source Information - Download Text | Download Zip
Sounds of San Francisco
"Grateful Dead Tribute"
Members of Tea Leaf Green, ALO, and Hot Buttered Rum
January 4, 2007
JamCruise 5
Teatro Del'Opera
MSC Opera

Source: Schoeps mk21 (DFC/NOS/FOB)-> kc5-> cmc6xt-> SD722 (24/48)-> CD Wave-> Wavelab (16/44)-> FLAC Frontend (Level 6)-> FLAC
Taper: Chris Imburgia

(Disc 1)
1. Intro
2. Jack Straw
3. Ship Of Fools
4. Loose Lucy
5. Crazy Fingers
(Disc 2)
1. Help on the Way >
2. Slipknot >
3. Franklin's Tower
4. Dire Wolf
5. Brokedown Palace
6. Lovelight

Jack Straw - TLG w/ HBR acoustic guitar player (Trev/Josh singing)
Ship Of Fools - ALO w/ a few HBR (Zac from HBR singing)
Loose Lucy - I think it was mostly HBR (Aaron from HBR sang?)
Crazy Fingers - HBR w/ Nat singing lead
Help > Slip > Franklin's  - ALO w/ HBR, Josh, Trev (Zach Gill singing)
Dire Wolf - TLG (Trevor singing)
Brokedown Palace - ????
Lovelight - All musicians (Erik from HBR sang w/ Donna Jean Godchaux)

FLAC Fingerprint
-------------------------------------

ssf2007-01-04d2t06.flac:ed8a9c289c3628a1902d4afc71036e8c
ssf2007-01-04d1t01.flac:d179e44f60c8efb712866277e10eda38
ssf2007-01-04d1t02.flac:92ade6a7c4d42114d1349782f7d37369
ssf2007-01-04d1t03.flac:75b71cd9ca0eadf0bf2ba3ae518edeca
ssf2007-01-04d1t04.flac:4873a28c1cb43cfc6a1db3b124953bf7
ssf2007-01-04d1t05.flac:2a614c28a8331abb130e6066e31414c8
ssf2007-01-04d2t01.flac:5f6ebb046d5f1113376545d2aac6b8c4
ssf2007-01-04d2t02.flac:ab4e27b57c51b997a6e2d9da2aa0c8f0
ssf2007-01-04d2t03.flac:20f2fdbe14684fd139a816a63d288c00
ssf2007-01-04d2t04.flac:082ac4b87350200178bfb1b2a0116890
ssf2007-01-04d2t05.flac:ca3653471ff2b0d127e9ea66b5e490d2

length     expanded size   cdr  WAVE problems filename
     0:57.12       10083068    ---   --   ---xx   ssf2007-01-04d1t01.flac
     8:13.19       87009932    ---   --   ---xx   ssf2007-01-04d1t02.flac
     9:01.30       95503004    ---   --   ---xx   ssf2007-01-04d1t03.flac
    11:47.05      124726604    ---   --   ---xx   ssf2007-01-04d1t04.flac
    13:15.25      140296844    ---   --   ---xx   ssf2007-01-04d1t05.flac
     8:32.68       90476780    ---   --   ---xx   ssf2007-01-04d2t01.flac
    15:57.19      168859532    ---   --   ---xx   ssf2007-01-04d2t02.flac
    16:51.26      178401596    ---   --   ---xx   ssf2007-01-04d2t03.flac
     7:21.12       77820668    ---   --   ---xx   ssf2007-01-04d2t04.flac
     6:00.39       63595772    ---   --   ---xx   ssf2007-01-04d2t05.flac
    14:54.50      157819244    ---   --   ---xx   ssf2007-01-04d2t06.flac
   112:52.05     1194593044 B                     (totals for 11 files, 0.5546 overall compression ratio)

Show Checksums
ffp
ssf2007-01-04d2t06.flac:ed8a9c289c3628a1902d4afc71036e8c
ssf2007-01-04d1t01.flac:d179e44f60c8efb712866277e10eda38
ssf2007-01-04d1t02.flac:92ade6a7c4d42114d1349782f7d37369
ssf2007-01-04d1t03.flac:75b71cd9ca0eadf0bf2ba3ae518edeca
ssf2007-01-04d1t04.flac:4873a28c1cb43cfc6a1db3b124953bf7
ssf2007-01-04d1t05.flac:2a614c28a8331abb130e6066e31414c8
ssf2007-01-04d2t01.flac:5f6ebb046d5f1113376545d2aac6b8c4
ssf2007-01-04d2t02.flac:ab4e27b57c51b997a6e2d9da2aa0c8f0
ssf2007-01-04d2t03.flac:20f2fdbe14684fd139a816a63d288c00
ssf2007-01-04d2t04.flac:082ac4b87350200178bfb1b2a0116890
ssf2007-01-04d2t05.flac:ca3653471ff2b0d127e9ea66b5e490d2

Comments
Add Comment
Date User Comment
08/30/2017 Grateful Darkstar This is not a John Cipollina show and should be moved elsewhere