Browse Collections Artists Sources   Search Dates

Add Show    List Management    Help


Grateful Dead 08/11/87
Red Rocks Amphitheatre, Morrison, CO
Comments Add Comment    Source Collectors    Add to Collection    Add to Want List    History
Source # 81953 Other Sources
Entered by Matt Vernon
Checksums flac-md5 , ffp
Disc Counts 2 / 2
Media Size
Date Circulated
Date Added
01/21/2007
01/22/2007
Source Summary flac16; AUD Source: Nakamichi CM-100's with CP-4 shotgun capsules > Marantz 420 cassette deck, with Dolby On. Set up in 15th row, stage left side of the soundboard. Taped by Jon Pasternak. Transfer: MAC > Nakamichi Dragon (Dolby on) > Tascam CDRW-5000 > CDR > EAC > Soundforge > CD-Wave > TLH v.1.0.0.72 (for SBE-OK, checksums and FLAC compression) > FLAC 
  Archive
Source Information - Download Text | Download Zip
GRATEFUL DEAD
Red Rocks
Morrison CO
08-11-1987

Disc One - Set One & Encore (57:03)

01 Cold Rain & Snow >
02 Little Red Rooster
03 Tons of Steel >
04 High Time
05 When I Paint My Masterpiece
06 When Push Comes to Shove
07 Let it //Grow
-- encore --
08 crowd & tuning
09 Black Muddy River

Disc Two - Set Two (77:52)

01 crowd & tuning
02 Crazy Fingers >
03 Samson & Delilah >
04 Ship of Fools
05 Playin' in the Band >
06 China Doll >
07 Drums >
08 S//pace >
09 All Along the Watchtower >
10 Goin' Down the Road >
11 Around & Around >
12 Sugar Magnolia

AUD Source: Nakamichi CM-100's with CP-4 shotgun capsules > Marantz 420
cassette deck, with Dolby On. Set up in 15th row, stage left side of the
soundboard. Taped by Jon Pasternak.

Transfer: MAC > Nakamichi Dragon (Dolby on) > Tascam CDRW-5000 > CDR >
EAC > Soundforge > CD-Wave > TLH v.1.0.0.72 (for SBE-OK, checksums and
FLAC compression) > FLAC, January 2007.

Notes:
- Tape flip at 8:19.294 in Let it Grow, mended together.
- Tape flip at 0:49.929 in Space, mended together.
- Soundforge used to make fades and clean up around the tape flips.

md5

062361fa14ab47040daabd616b671910 *gd1987-08-11d1t01.flac
8dba3f8775e751386d262fd6378b7bf3 *gd1987-08-11d1t02.flac
1e2e2372849a662d15d64efdec5677d1 *gd1987-08-11d1t03.flac
66efa516d8c7f367bb5caf0cbca5f6d3 *gd1987-08-11d1t04.flac
40052782e34c60916f29662b6fc9a468 *gd1987-08-11d1t05.flac
4149d12c368b3aeaf45931ad182542e3 *gd1987-08-11d1t06.flac
0af9b07c3ee882ad3209270f6f6588d6 *gd1987-08-11d1t07.flac
7243c946251bbf7997222667c6438cda *gd1987-08-11d1t08.flac
bf818c0f687cd39a10d38023d5805fac *gd1987-08-11d1t09.flac
4d20d21289b82e379d84d46a60f9c266 *gd1987-08-11d2t01.flac
fda062d5fd33ec0f09b195a913f1dd8a *gd1987-08-11d2t02.flac
433c7f953855f473345d484890e430e4 *gd1987-08-11d2t03.flac
88565d9a984cf034f209ebf00747b781 *gd1987-08-11d2t04.flac
9aed460655e0f3d61e81262077550467 *gd1987-08-11d2t05.flac
c6fd7c744c075c4d3654f6645634587f *gd1987-08-11d2t06.flac
01e0306dc8873b2f61d7e3105e93441d *gd1987-08-11d2t07.flac
2aa05238dccc79d379ec0aeced718120 *gd1987-08-11d2t08.flac
0f201af26929771d9327cedb21f4a183 *gd1987-08-11d2t09.flac
9bb8e5d63ed43ac125439c972e6c6251 *gd1987-08-11d2t10.flac
997cd44882d49c2e27cf99751cf1ee86 *gd1987-08-11d2t11.flac
44112c8d0fb2e24172aee7194b8c1e6d *gd1987-08-11d2t12.flac

ffp

gd1987-08-11d1t01.flac:bb55901446055180800634c9a4a19c45
gd1987-08-11d1t02.flac:274917d6a1563143265f3db02f0436b6
gd1987-08-11d1t03.flac:4227f6a0a9a7a8bc44fa32aa0ffdf253
gd1987-08-11d1t04.flac:7acf698ac941c8518bc2cfb19bd9bb62
gd1987-08-11d1t05.flac:b58020b43b1ed03f1bfcfdcdbc380d7c
gd1987-08-11d1t06.flac:97691fb1a9aa58e928898cb7758cc581
gd1987-08-11d1t07.flac:3d80cff6548e2d0c85451074fc8292a1
gd1987-08-11d1t08.flac:ce1791f6561c4a2261454cd97cb84f3d
gd1987-08-11d1t09.flac:694f808394e30000934088d8c22acd1f
gd1987-08-11d2t01.flac:c5d28c5c7b1d5baa086379c53ac5a81e
gd1987-08-11d2t02.flac:c246de70e5737145844c26c9d853600e
gd1987-08-11d2t03.flac:d172393aeefda1077550d4b80b06a784
gd1987-08-11d2t04.flac:7fe46732e617080717ae7b4b802231b6
gd1987-08-11d2t05.flac:d586e661e154197e9c3293dee84398b1
gd1987-08-11d2t06.flac:9a810f63fd0e92d5c87271bde94463d3
gd1987-08-11d2t07.flac:d9d05d434ab9afd36f32449ff6d00020
gd1987-08-11d2t08.flac:2be96b862d90ec1c899609252aec7d90
gd1987-08-11d2t09.flac:41b855827abd1692c99757dd13802bf9
gd1987-08-11d2t10.flac:7c6e84d0a13ef182c72e905e346c7d2d
gd1987-08-11d2t11.flac:aed8bbfc9e7a4c491b896a50c09e5dd9
gd1987-08-11d2t12.flac:66fb8b3015d5bb0badec4fd73a2c038d

shntool

    length     expanded size   cdr  WAVE problems filename
     5:52.70       62257484    ---   --   ---xx   gd1987-08-11d1t01.flac
     9:06.03       96321500    ---   --   ---xx   gd1987-08-11d1t02.flac
     5:08.53       54455900    ---   --   ---xx   gd1987-08-11d1t03.flac
     7:20.35       77698364    ---   --   ---xx   gd1987-08-11d1t04.flac
     4:28.09       47296412    ---   --   ---xx   gd1987-08-11d1t05.flac
     5:13.07       55229708    ---   --   ---xx   gd1987-08-11d1t06.flac
    12:49.06      135665756    ---   --   ---xx   gd1987-08-11d1t07.flac
     0:31.20        5515484    ---   --   ---xx   gd1987-08-11d1t08.flac
     6:33.48       69438140    ---   --   ---xx   gd1987-08-11d1t09.flac
     0:58.50       10348844    ---   --   ---xx   gd1987-08-11d2t01.flac
     7:44.73       82021340    ---   --   ---xx   gd1987-08-11d2t02.flac
     6:33.58       69461660    ---   --   ---xx   gd1987-08-11d2t03.flac
     9:11.37       97283468    ---   --   ---xx   gd1987-08-11d2t04.flac
     7:57.25       84201644    ---   --   ---xx   gd1987-08-11d2t05.flac
     5:32.44       58668332    ---   --   ---xx   gd1987-08-11d2t06.flac
     8:20.15       88235324    ---   --   ---xx   gd1987-08-11d2t07.flac
     7:17.36       77171516    ---   --   ---xx   gd1987-08-11d2t08.flac
     4:49.32       51054908    ---   --   ---xx   gd1987-08-11d2t09.flac
     6:24.68       67897580    ---   --   ---xx   gd1987-08-11d2t10.flac
     3:44.39       39605372    ---   --   ---xx   gd1987-08-11d2t11.flac
     9:17.39       98346572    ---   --   ---xx   gd1987-08-11d2t12.flac
   134:56.17     1428175308 B                     (totals for 21 files, 0.6079 overall compression ratio)

There were no sector boundary errors.
Show Checksums
flac-md5
062361fa14ab47040daabd616b671910 *gd1987-08-11d1t01.flac
8dba3f8775e751386d262fd6378b7bf3 *gd1987-08-11d1t02.flac
1e2e2372849a662d15d64efdec5677d1 *gd1987-08-11d1t03.flac
66efa516d8c7f367bb5caf0cbca5f6d3 *gd1987-08-11d1t04.flac
40052782e34c60916f29662b6fc9a468 *gd1987-08-11d1t05.flac
4149d12c368b3aeaf45931ad182542e3 *gd1987-08-11d1t06.flac
0af9b07c3ee882ad3209270f6f6588d6 *gd1987-08-11d1t07.flac
7243c946251bbf7997222667c6438cda *gd1987-08-11d1t08.flac
bf818c0f687cd39a10d38023d5805fac *gd1987-08-11d1t09.flac
4d20d21289b82e379d84d46a60f9c266 *gd1987-08-11d2t01.flac
fda062d5fd33ec0f09b195a913f1dd8a *gd1987-08-11d2t02.flac
433c7f953855f473345d484890e430e4 *gd1987-08-11d2t03.flac
88565d9a984cf034f209ebf00747b781 *gd1987-08-11d2t04.flac
9aed460655e0f3d61e81262077550467 *gd1987-08-11d2t05.flac
c6fd7c744c075c4d3654f6645634587f *gd1987-08-11d2t06.flac
01e0306dc8873b2f61d7e3105e93441d *gd1987-08-11d2t07.flac
2aa05238dccc79d379ec0aeced718120 *gd1987-08-11d2t08.flac
0f201af26929771d9327cedb21f4a183 *gd1987-08-11d2t09.flac
9bb8e5d63ed43ac125439c972e6c6251 *gd1987-08-11d2t10.flac
997cd44882d49c2e27cf99751cf1ee86 *gd1987-08-11d2t11.flac
44112c8d0fb2e24172aee7194b8c1e6d *gd1987-08-11d2t12.flac
ffp
gd1987-08-11d1t01.flac:bb55901446055180800634c9a4a19c45
gd1987-08-11d1t02.flac:274917d6a1563143265f3db02f0436b6
gd1987-08-11d1t03.flac:4227f6a0a9a7a8bc44fa32aa0ffdf253
gd1987-08-11d1t04.flac:7acf698ac941c8518bc2cfb19bd9bb62
gd1987-08-11d1t05.flac:b58020b43b1ed03f1bfcfdcdbc380d7c
gd1987-08-11d1t06.flac:97691fb1a9aa58e928898cb7758cc581
gd1987-08-11d1t07.flac:3d80cff6548e2d0c85451074fc8292a1
gd1987-08-11d1t08.flac:ce1791f6561c4a2261454cd97cb84f3d
gd1987-08-11d1t09.flac:694f808394e30000934088d8c22acd1f
gd1987-08-11d2t01.flac:c5d28c5c7b1d5baa086379c53ac5a81e
gd1987-08-11d2t02.flac:c246de70e5737145844c26c9d853600e
gd1987-08-11d2t03.flac:d172393aeefda1077550d4b80b06a784
gd1987-08-11d2t04.flac:7fe46732e617080717ae7b4b802231b6
gd1987-08-11d2t05.flac:d586e661e154197e9c3293dee84398b1
gd1987-08-11d2t06.flac:9a810f63fd0e92d5c87271bde94463d3
gd1987-08-11d2t07.flac:d9d05d434ab9afd36f32449ff6d00020
gd1987-08-11d2t08.flac:2be96b862d90ec1c899609252aec7d90
gd1987-08-11d2t09.flac:41b855827abd1692c99757dd13802bf9
gd1987-08-11d2t10.flac:7c6e84d0a13ef182c72e905e346c7d2d
gd1987-08-11d2t11.flac:aed8bbfc9e7a4c491b896a50c09e5dd9
gd1987-08-11d2t12.flac:66fb8b3015d5bb0badec4fd73a2c038d

Comments
Add Comment
Other Sources (comments)
set 2; SBD> PCM> Dat> Cass>... (0) set 1; SBD> PCM> ??> Dat>... (0) SBD -> PCM -> CD -> EAC ->... (0) flac16; Source:... (0) flac16; Recording... (0) flac16; FOB Schoeps... (0) flac16;... (0) flac16; Matrix 2... (0) DTS-Audio-CD 5.1... (0) flac16/48kHz; 5.1... (0) flac16; Source Info:... (0)
Date User Comment