Browse Collections Artists Sources   Search Dates

Add Show    List Management    Help


Grateful Dead 08/12/87
Red Rocks Amphitheatre, Morrison, CO
Comments Add Comment    Source Collectors    Add to Collection    Add to Want List    History
Source # 81967 Other Sources
Entered by Matt Vernon
Checksums flac-md5 , ffp
Disc Counts 2 / 2
Media Size
Date Circulated
Date Added
01/21/2007
01/22/2007
Source Summary AUD Source: Nakamichi CM-100's with CP-4 shotgun capsules > Marantz 420 cassette deck, with Dolby On. Set up in front row of taper's section. Taped by Jon Pasternak. Transfer: MAC > Nakamichi Dragon (Dolby on) > Tascam CDRW-5000 > CDR > EAC > Soundforge > CD-Wave > TLH v.1.0.0.72 (for SBE-OK, checksums and\ FLAC compression) > FLAC, January 2007.  
  Archive
Source Information - Download Text | Download Zip
GRATEFUL DEAD
Red Rocks
Morrison CO
08-12-1987

Disc One - Set One (62:26)

01 crowd & tuning
02 Hell in a Bucket >
03 Sugaree
04 Good Times Blues >
05 Cumberland Blues >
06 Mexicali Blues
07 Friend of the Devil
08 Brother Esau >
09 Birdsong >
10 The Music Never Stopped

Disc Two - Set Two & Encore (71:10)

01 crowd & tuning
02 China Cat Sunflower >
03 I Know You Rider >
04 Women Are Smarter >
05 Terrapin >
06 Drums >
07 S//pace >
08 The Other One >
09 Dear Mr. Fantasy >
10 Wharf Rat >
11 Turn on Your Lovelight
-- encore --
12 The Mighty Quinn

AUD Source: Nakamichi CM-100's with CP-4 shotgun capsules > Marantz 420
cassette deck, with Dolby On. Set up in front row of taper's section.
Taped by Jon Pasternak.

Transfer: MAC > Nakamichi Dragon (Dolby on) > Tascam CDRW-5000 > CDR >
EAC > Soundforge > CD-Wave > TLH v.1.0.0.72 (for SBE-OK, checksums and
FLAC compression) > FLAC, January 2007.

Notes:
- Tape flip at 0:49.388 in Space, mended together.
- First notes of Mighty Quinn slightly clipped.
- This is the same source as ShnID-14911, but with MAC > CD lineage.
- Soundforge used to make fades and clean up around the tape flips.

md5

44b8338f641a8f27a424cab147f650d7 *gd1987-08-12d1t01.flac
e9ff817f0589518e9aa4c8e41f53354f *gd1987-08-12d1t02.flac
80b717f9b3091f29292b367cb98e2c73 *gd1987-08-12d1t03.flac
8ca424808f813d61d7bee3be160ef97a *gd1987-08-12d1t04.flac
df253b6f46d30e7d6c5d957d0d778f23 *gd1987-08-12d1t05.flac
039e2231f580c42efda0ce382140027f *gd1987-08-12d1t06.flac
1f00abc6028ee28883086c8e8c3eae5a *gd1987-08-12d1t07.flac
13b0eb95e1ef0280681ee2f424c2d12f *gd1987-08-12d1t08.flac
5075142136fa8ba93aa1d24b7554c39a *gd1987-08-12d1t09.flac
13856731a073bbd8a56e3f33d247b944 *gd1987-08-12d1t10.flac
52a519eec2a9a556b394d04287c050ac *gd1987-08-12d2t01.flac
bc6269f7fb72114e4e261a0bff2283dc *gd1987-08-12d2t02.flac
07a4f7f971fd8b92fe25cb0e7e03d7e4 *gd1987-08-12d2t03.flac
dfd32fc995516d420f8f7091ff0118f9 *gd1987-08-12d2t04.flac
c0fbda6903d36c3cfe47cd2a1c5c7532 *gd1987-08-12d2t05.flac
d7bbe744e81f2778e12f6da09951dd29 *gd1987-08-12d2t06.flac
bc9adee8b4207d0f084217bfe74c65a4 *gd1987-08-12d2t07.flac
a89e15370ce552548a7c9eb4ee3afb15 *gd1987-08-12d2t08.flac
3e899304f2fab3c574a0279a2d72d475 *gd1987-08-12d2t09.flac
f7a562ac06fcaaf8c4bce0f1029da0c0 *gd1987-08-12d2t10.flac
ddcf4b98c80d57cc21061348584ab79e *gd1987-08-12d2t11.flac
3dae08e3c8b3b0e667be1900c4b89181 *gd1987-08-12d2t12.flac

ffp

gd1987-08-12d1t01.flac:b22c749ae898845ab6989834e41e83fe
gd1987-08-12d1t02.flac:5a296b9fe45634babb3b4bc7c2721974
gd1987-08-12d1t03.flac:63471b95bf8e91041d525439b9f71eba
gd1987-08-12d1t04.flac:540fbd72ec5a8b0060888e0126106762
gd1987-08-12d1t05.flac:bb28817639b5da19a954c69fc5816459
gd1987-08-12d1t06.flac:5f64790bce56549b05c978e97d890a4b
gd1987-08-12d1t07.flac:3e59390d2a00792a5cf2747caa1c3540
gd1987-08-12d1t08.flac:f09161e0939539cd5ffc75194a9343d7
gd1987-08-12d1t09.flac:942f67aa156aaad5fe5691572179530d
gd1987-08-12d1t10.flac:cf034790ffb51d5d63b3612ace4763ec
gd1987-08-12d2t01.flac:aecbfd11bf0481b562d690af49737a18
gd1987-08-12d2t02.flac:b6af5479d6e5b67e5b71d673fadb76db
gd1987-08-12d2t03.flac:5cef7e1a6bdba6701fc2b07c8a0e01f0
gd1987-08-12d2t04.flac:d08663ad815a6edd8b5e20bb350a0e88
gd1987-08-12d2t05.flac:4461d25ca13ab2af2a4099dc2626c93d
gd1987-08-12d2t06.flac:2a6675f73d20b0fdc2daa70f4954c80f
gd1987-08-12d2t07.flac:1bc3e78108868f29929e4984a987b7f9
gd1987-08-12d2t08.flac:0e1b7965a23e6176187fc173fa5aef66
gd1987-08-12d2t09.flac:71a05e56aedb73a78a918b21befc0448
gd1987-08-12d2t10.flac:8b12b3174ebc51a86e97637792cdd681
gd1987-08-12d2t11.flac:63f069b7bec7d63b441b745a8e69b02c
gd1987-08-12d2t12.flac:f5681529a16e416a42b3c16ea66cf135

shntool

    length     expanded size   cdr  WAVE problems filename
     0:35.34        6254012    ---   --   ---xx   gd1987-08-12d1t01.flac
     6:03.74       64207292    ---   --   ---xx   gd1987-08-12d1t02.flac
    10:55.69      115704332    ---   --   ---xx   gd1987-08-12d1t03.flac
     5:17.50       56036444    ---   --   ---xx   gd1987-08-12d1t04.flac
     4:28.62       47421068    ---   --   ---xx   gd1987-08-12d1t05.flac
     4:53.57       51819308    ---   --   ---xx   gd1987-08-12d1t06.flac
     8:45.14       92642972    ---   --   ---xx   gd1987-08-12d1t07.flac
     4:40.14       49424972    ---   --   ---xx   gd1987-08-12d1t08.flac
     9:14.72       97894988    ---   --   ---xx   gd1987-08-12d1t09.flac
     7:30.71       79547036    ---   --   ---xx   gd1987-08-12d1t10.flac
     0:48.59        8606012    ---   --   ---xx   gd1987-08-12d2t01.flac
     5:50.08       61758860    ---   --   ---xx   gd1987-08-12d2t02.flac
     5:32.65       58717724    ---   --   ---xx   gd1987-08-12d2t03.flac
     7:13.32       76456508    ---   --   ---xx   gd1987-08-12d2t04.flac
    11:42.11      123858716    ---   --   ---xx   gd1987-08-12d2t05.flac
     7:05.66       75125276    ---   --   ---xx   gd1987-08-12d2t06.flac
     6:30.31       68868956    ---   --   ---xx   gd1987-08-12d2t07.flac
     4:39.00       49215644    ---   --   ---xx   gd1987-08-12d2t08.flac
     3:55.40       41548124    ---   --   ---xx   gd1987-08-12d2t09.flac
     8:17.52       87793148    ---   --   ---xx   gd1987-08-12d2t10.flac
     4:46.42       50549228    ---   --   ---xx   gd1987-08-12d2t11.flac
     4:47.48       50739740    ---   --   ---xx   gd1987-08-12d2t12.flac
   133:36.71     1414190360 B                     (totals for 22 files, 0.6184 overall compression ratio)

There were no sector boundary errors.
Show Checksums
flac-md5
44b8338f641a8f27a424cab147f650d7 *gd1987-08-12d1t01.flac
e9ff817f0589518e9aa4c8e41f53354f *gd1987-08-12d1t02.flac
80b717f9b3091f29292b367cb98e2c73 *gd1987-08-12d1t03.flac
8ca424808f813d61d7bee3be160ef97a *gd1987-08-12d1t04.flac
df253b6f46d30e7d6c5d957d0d778f23 *gd1987-08-12d1t05.flac
039e2231f580c42efda0ce382140027f *gd1987-08-12d1t06.flac
1f00abc6028ee28883086c8e8c3eae5a *gd1987-08-12d1t07.flac
13b0eb95e1ef0280681ee2f424c2d12f *gd1987-08-12d1t08.flac
5075142136fa8ba93aa1d24b7554c39a *gd1987-08-12d1t09.flac
13856731a073bbd8a56e3f33d247b944 *gd1987-08-12d1t10.flac
52a519eec2a9a556b394d04287c050ac *gd1987-08-12d2t01.flac
bc6269f7fb72114e4e261a0bff2283dc *gd1987-08-12d2t02.flac
07a4f7f971fd8b92fe25cb0e7e03d7e4 *gd1987-08-12d2t03.flac
dfd32fc995516d420f8f7091ff0118f9 *gd1987-08-12d2t04.flac
c0fbda6903d36c3cfe47cd2a1c5c7532 *gd1987-08-12d2t05.flac
d7bbe744e81f2778e12f6da09951dd29 *gd1987-08-12d2t06.flac
bc9adee8b4207d0f084217bfe74c65a4 *gd1987-08-12d2t07.flac
a89e15370ce552548a7c9eb4ee3afb15 *gd1987-08-12d2t08.flac
3e899304f2fab3c574a0279a2d72d475 *gd1987-08-12d2t09.flac
f7a562ac06fcaaf8c4bce0f1029da0c0 *gd1987-08-12d2t10.flac
ddcf4b98c80d57cc21061348584ab79e *gd1987-08-12d2t11.flac
3dae08e3c8b3b0e667be1900c4b89181 *gd1987-08-12d2t12.flac
ffp
gd1987-08-12d1t01.flac:b22c749ae898845ab6989834e41e83fe
gd1987-08-12d1t02.flac:5a296b9fe45634babb3b4bc7c2721974
gd1987-08-12d1t03.flac:63471b95bf8e91041d525439b9f71eba
gd1987-08-12d1t04.flac:540fbd72ec5a8b0060888e0126106762
gd1987-08-12d1t05.flac:bb28817639b5da19a954c69fc5816459
gd1987-08-12d1t06.flac:5f64790bce56549b05c978e97d890a4b
gd1987-08-12d1t07.flac:3e59390d2a00792a5cf2747caa1c3540
gd1987-08-12d1t08.flac:f09161e0939539cd5ffc75194a9343d7
gd1987-08-12d1t09.flac:942f67aa156aaad5fe5691572179530d
gd1987-08-12d1t10.flac:cf034790ffb51d5d63b3612ace4763ec
gd1987-08-12d2t01.flac:aecbfd11bf0481b562d690af49737a18
gd1987-08-12d2t02.flac:b6af5479d6e5b67e5b71d673fadb76db
gd1987-08-12d2t03.flac:5cef7e1a6bdba6701fc2b07c8a0e01f0
gd1987-08-12d2t04.flac:d08663ad815a6edd8b5e20bb350a0e88
gd1987-08-12d2t05.flac:4461d25ca13ab2af2a4099dc2626c93d
gd1987-08-12d2t06.flac:2a6675f73d20b0fdc2daa70f4954c80f
gd1987-08-12d2t07.flac:1bc3e78108868f29929e4984a987b7f9
gd1987-08-12d2t08.flac:0e1b7965a23e6176187fc173fa5aef66
gd1987-08-12d2t09.flac:71a05e56aedb73a78a918b21befc0448
gd1987-08-12d2t10.flac:8b12b3174ebc51a86e97637792cdd681
gd1987-08-12d2t11.flac:63f069b7bec7d63b441b745a8e69b02c
gd1987-08-12d2t12.flac:f5681529a16e416a42b3c16ea66cf135

Comments
Add Comment
Other Sources (comments)
Nak CM 100>MC>DAT>CD; via... (2) AUD (Nak... (2) flac16; Schoeps CMC... (0) flac16; Recording... (0) flac16; Source:... (0) flac16; Recording... (0) flac16; Source Info:... (0)
Date User Comment