Browse Collections Artists Sources   Search Dates

Add Show    List Management    Help


Grateful Dead 06/12/87
Ventura County Fairgrounds, Ventura, CA
Comments Add Comment    Source Collectors    Add to Collection    Add to Want List    History
Source # 81970 Other Sources
Entered by Matt Vernon
Checksums ffp , flac-md5
Disc Counts 0 / 0
Media Size
Date Circulated
Date Added
01/22/2007
01/22/2007
Source Summary flac24/96; Taper: Danny Thomson Source: FOB AKG C460b pre's with Ck61uls capsules > Uher CR240 (about 10th row DFC) > AKY Recording Supply Custom Wound BASF 100% CrO2 Cassette Transfer: Nak DR-1 > Apogee 200 Rosetta > Firewire > Apple G5 > Bias Peak by Derek McCabe Mastering: WAV24/96 > Wavelab 6.0 (WavesTools(C4, RBass, Q10)), BBE, L3 (type1 dither, no noise shaping) > FLAC by Jamie Waddell 
  Archive
Source Information - Download Text | Download Zip
Grateful Dead
6/12/1987
Ventura County Fairgrounds
Ventura, CA


MotB Release: 0006/24b


Taper: Danny Thomson
Source: FOB AKG C460b pre's with Ck61uls capsules > Uher CR240 (about 10th row DFC) > AKY Recording Supply Custom Wound BASF 100% CrO2 Cassette
Transfer: Nak DR-1 > Apogee 200 Rosetta > Firewire > Apple G5 > Bias Peak by Derek McCabe
Mastering: WAV24/96 > Wavelab 6.0 (WavesTools(C4, RBass, Q10)), BBE, L3 (type1 dither, no noise shaping) > FLAC by Jamie Waddell


Set I
01 Crowd
02 Jack Straw
03 West L.A. Fadeaway
04 Mama Tried >
05 Big River
06 Candyman
07 Esau
08 Bird Song
(crowd between patched in)
09 Desolation Row >
10 Dont Ease Me In

Set II
01 crowd and announcer...
02 China Cat Sunflower >
03 I Know You Rider
04 Far From Me
05 Women Are Smarter >
06 He's Gone*
07 Drums*
08 Space* >
09 Wheel >
10 Miracle >
11 Black Peter >
12 Around & Around >
13 Good Lovin'
14 crowd

Encore
15 Touch of Grey

*patched in... see notes


Notes:
- This source followed cassette taping ritual; the Encore was recorded on tape 1, B side, after the end of Set I, where blank tape still was plentiful.  The show's song order was re-assembled. The taper also paused (ran out of tape?) during s2t06 "He's Gone" and resumed moments before s2t09 "Wheel" develops.  This part of the concert (/s2t06-s2t08) is patched with the Clugston SBD Source (shnID 12221), which was adjusted for editing purposes.  
- During last seconds of s2d05 "Women Are Smarter", fellow tenth row fan asks Danny Thomson ... "you should be in the tapers section" ...  our steady taper replies "... shouuld beee ..." [grinning I'm sure...].   Classic!
- Please go to http://www.motb.org/shows/gd1987-06-12.motb.0006.html to download artwork for these CDs.
- Big Thanks To AEGERT, whose energy is unrivaled, Derek McCabe for his expertise, and Bluedakota for inspiration and tools, and most of all: Danny Thomson, for taping in the Mouth of the Beast to bring us this treasure!!


shntool output:
length     expanded size   cdr  WAVE problems filename
     0:54.58        9662060    ---   --   ---xx   gd1987-06-12.MOTB.Set1.t01.flac
     5:44.67       60839228    ---   --   ---xx   gd1987-06-12.MOTB.Set1.t02.flac
     7:41.70       81485084    ---   --   ---xx   gd1987-06-12.MOTB.Set1.t03.flac
     2:37.27       27758348    ---   --   ---xx   gd1987-06-12.MOTB.Set1.t04.flac
     4:51.35       51414764    ---   --   ---xx   gd1987-06-12.MOTB.Set1.t05.flac
     7:20.18       77658380    ---   --   ---xx   gd1987-06-12.MOTB.Set1.t06.flac
     4:56.03       52221500    ---   --   ---xx   gd1987-06-12.MOTB.Set1.t07.flac
    11:54.66      126104876    ---   --   ---xx   gd1987-06-12.MOTB.Set1.t08.flac
     9:22.37       99223868    ---   --   ---xx   gd1987-06-12.MOTB.Set1.t09.flac
     3:28.10       36714764    ---   --   ---xx   gd1987-06-12.MOTB.Set1.t10.flac
     2:02.70       21685484    ---   --   ---xx   gd1987-06-12.MOTB.Set2.t01.flac
     5:26.27       57569948    ---   --   ---xx   gd1987-06-12.MOTB.Set2.t02.flac
     8:22.10       88576364    ---   --   ---xx   gd1987-06-12.MOTB.Set2.t03.flac
     4:52.47       51619388    ---   --   ---xx   gd1987-06-12.MOTB.Set2.t04.flac
     8:27.71       89601836    ---   --   ---xx   gd1987-06-12.MOTB.Set2.t05.flac
    10:16.13      108693020    ---   --   ---xx   gd1987-06-12.MOTB.Set2.t06.flac
     7:34.11       80111516    ---   --   ---xx   gd1987-06-12.MOTB.Set2.t07.flac
     7:12.08       76223660    ---   --   ---xx   gd1987-06-12.MOTB.Set2.t08.flac
     6:06.71       64729436    ---   --   ---xx   gd1987-06-12.MOTB.Set2.t09.flac
     4:21.72       46209788    ---   --   ---xx   gd1987-06-12.MOTB.Set2.t10.flac
     9:15.63       98050220    ---   --   ---xx   gd1987-06-12.MOTB.Set2.t11.flac
     3:52.11       40950716    ---   --   ---xx   gd1987-06-12.MOTB.Set2.t12.flac
     7:14.39       76649372    ---   --   ---xx   gd1987-06-12.MOTB.Set2.t13.flac
     0:44.66        7916876    ---   --   ---xx   gd1987-06-12.MOTB.Set2.t14.flac
     6:02.12       63885068    ---   --   ---xx   gd1987-06-12.MOTB.Set2.t15.flac
   150:45.07     1595555564 B                     (totals for 25 files, 0.5765 overall compression ratio)


gd1987-06-12.MOTB.Set1.t01.flac:40030c39bcb425008e26b43bed38adc0
gd1987-06-12.MOTB.Set1.t02.flac:711261f7b2ed5d0a3012a701db297fd5
gd1987-06-12.MOTB.Set1.t03.flac:634e198b29020d50c78188590899c4fc
gd1987-06-12.MOTB.Set1.t04.flac:f3aea524ab9b2bf2b8b5f9cdeff53f94
gd1987-06-12.MOTB.Set1.t05.flac:01e3dd0131d3ec7d96aa2a43f111a371
gd1987-06-12.MOTB.Set1.t06.flac:22e9c602bc868951d11b964ac772c9d3
gd1987-06-12.MOTB.Set1.t07.flac:b0c38c653c0baa5d132cc3a96bd0e784
gd1987-06-12.MOTB.Set1.t08.flac:516ad1ba5d4e62147d71840e1f6ef805
gd1987-06-12.MOTB.Set1.t09.flac:8c4dbbd3f81f5cc3585f99948571ed42
gd1987-06-12.MOTB.Set1.t10.flac:b59c626c9d65e8a86845aaa32a7909a5
gd1987-06-12.MOTB.Set2.t01.flac:aeea3fbe7a6a2a69fae851c0c9925482
gd1987-06-12.MOTB.Set2.t02.flac:f1ef23b2503a83c23c4c9b31bd6ebc9b
gd1987-06-12.MOTB.Set2.t03.flac:b3ffd05952e0abb2ad8e6644621e16f0
gd1987-06-12.MOTB.Set2.t04.flac:b9f7ad83b113d51338bca2d3e289a112
gd1987-06-12.MOTB.Set2.t05.flac:fab4f0a21e66b4570299dafc3f669892
gd1987-06-12.MOTB.Set2.t06.flac:77f510bb2e32f81457b827ee704dde2d
gd1987-06-12.MOTB.Set2.t07.flac:35c5fc2e6f2170560ff626385a18ea48
gd1987-06-12.MOTB.Set2.t08.flac:593dfcb025fc46614a86ac79504a23f3
gd1987-06-12.MOTB.Set2.t09.flac:552da7c3bca30ef49799053ac9208bc0
gd1987-06-12.MOTB.Set2.t10.flac:4d68fc4bf1ee8952bceb7d843e719d85
gd1987-06-12.MOTB.Set2.t11.flac:0b429709b52270e2576ffa30b915724f
gd1987-06-12.MOTB.Set2.t12.flac:4da61a5e8d1ebf78deebdfc8d65fc5d0
gd1987-06-12.MOTB.Set2.t13.flac:26e32bf895580ac99fac9ab07fcf236a
gd1987-06-12.MOTB.Set2.t14.flac:5f22c4dd05cbf54e7aad1b35f45cb648
gd1987-06-12.MOTB.Set2.t15.flac:ac3fd37bae4ac27e5782c6fc797151e9
Show Checksums
ffp
gd1987-06-12.MOTB.Set1.t01.flac:40030c39bcb425008e26b43bed38adc0
gd1987-06-12.MOTB.Set1.t02.flac:711261f7b2ed5d0a3012a701db297fd5
gd1987-06-12.MOTB.Set1.t03.flac:634e198b29020d50c78188590899c4fc
gd1987-06-12.MOTB.Set1.t04.flac:f3aea524ab9b2bf2b8b5f9cdeff53f94
gd1987-06-12.MOTB.Set1.t05.flac:01e3dd0131d3ec7d96aa2a43f111a371
gd1987-06-12.MOTB.Set1.t06.flac:22e9c602bc868951d11b964ac772c9d3
gd1987-06-12.MOTB.Set1.t07.flac:b0c38c653c0baa5d132cc3a96bd0e784
gd1987-06-12.MOTB.Set1.t08.flac:516ad1ba5d4e62147d71840e1f6ef805
gd1987-06-12.MOTB.Set1.t09.flac:8c4dbbd3f81f5cc3585f99948571ed42
gd1987-06-12.MOTB.Set1.t10.flac:b59c626c9d65e8a86845aaa32a7909a5
gd1987-06-12.MOTB.Set2.t01.flac:aeea3fbe7a6a2a69fae851c0c9925482
gd1987-06-12.MOTB.Set2.t02.flac:f1ef23b2503a83c23c4c9b31bd6ebc9b
gd1987-06-12.MOTB.Set2.t03.flac:b3ffd05952e0abb2ad8e6644621e16f0
gd1987-06-12.MOTB.Set2.t04.flac:b9f7ad83b113d51338bca2d3e289a112
gd1987-06-12.MOTB.Set2.t05.flac:fab4f0a21e66b4570299dafc3f669892
gd1987-06-12.MOTB.Set2.t06.flac:77f510bb2e32f81457b827ee704dde2d
gd1987-06-12.MOTB.Set2.t07.flac:35c5fc2e6f2170560ff626385a18ea48
gd1987-06-12.MOTB.Set2.t08.flac:593dfcb025fc46614a86ac79504a23f3
gd1987-06-12.MOTB.Set2.t09.flac:552da7c3bca30ef49799053ac9208bc0
gd1987-06-12.MOTB.Set2.t10.flac:4d68fc4bf1ee8952bceb7d843e719d85
gd1987-06-12.MOTB.Set2.t11.flac:0b429709b52270e2576ffa30b915724f
gd1987-06-12.MOTB.Set2.t12.flac:4da61a5e8d1ebf78deebdfc8d65fc5d0
gd1987-06-12.MOTB.Set2.t13.flac:26e32bf895580ac99fac9ab07fcf236a
gd1987-06-12.MOTB.Set2.t14.flac:5f22c4dd05cbf54e7aad1b35f45cb648
gd1987-06-12.MOTB.Set2.t15.flac:ac3fd37bae4ac27e5782c6fc797151e9
flac-md5
2261c25535f340e2475845c87ec9de8e *gd1987-06-12.motb.set1.t01.flac
3b2fb60b28456482fd6dafd3d42bdce5 *gd1987-06-12.motb.set1.t02.flac
d0a35556c4be29836253867e2b643407 *gd1987-06-12.motb.set1.t03.flac
3681f26161c87efd283f982295dc9bae *gd1987-06-12.motb.set1.t04.flac
6291a2eb36ad197f9cceeccd97b5147f *gd1987-06-12.motb.set1.t05.flac
35c924231cd83468c49b5d12af4e4871 *gd1987-06-12.motb.set1.t06.flac
1aa80c47eb7e3deb559e7fb7288f2ef2 *gd1987-06-12.motb.set1.t07.flac
aede4c5a8771a0dae98f8f4d1326b665 *gd1987-06-12.motb.set1.t08.flac
9a9e709fcb125a08ba0dc278b27de045 *gd1987-06-12.motb.set1.t09.flac
ed7de3e9e1ad00001dcc6e65b70f4700 *gd1987-06-12.motb.set1.t10.flac
e0c8b615e80522922e4a009396d3360e *gd1987-06-12.motb.set2.t01.flac
dd055ee52224de66384d74667d03629c *gd1987-06-12.motb.set2.t02.flac
9a9555b4247eafcc12044f0c280dc17c *gd1987-06-12.motb.set2.t03.flac
2ce7546930be6a1b044cdbc7fc8e940d *gd1987-06-12.motb.set2.t04.flac
1081162687d1af7fc3004563b7416f4f *gd1987-06-12.motb.set2.t05.flac
95a6712f1caa2a33dc62efb6b1ea3c33 *gd1987-06-12.motb.set2.t06.flac
b81a117fa394bf00d69fd78a0cb6350a *gd1987-06-12.motb.set2.t07.flac
5ea2e26529467506126e0899982444a3 *gd1987-06-12.motb.set2.t08.flac
35bedb4b129a832639ce25badf68511c *gd1987-06-12.motb.set2.t09.flac
744dd35172dc2e24888e4b3ce89fcc97 *gd1987-06-12.motb.set2.t10.flac
3889466231c731524309a8d42218c5de *gd1987-06-12.motb.set2.t11.flac
d447bd14ce39338c3bf30c6cb5082257 *gd1987-06-12.motb.set2.t12.flac
bb2b84336e4f7841bc8c5932b1ac9624 *gd1987-06-12.motb.set2.t13.flac
1f3fc5eda1429db8d8c13f6ebfae2105 *gd1987-06-12.motb.set2.t14.flac
4f472ec4dea55f94aa4af4a7c811919e *gd1987-06-12.motb.set2.t15.flac

Comments
Add Comment
Other Sources (comments)
FOB-AUD>MC>CDR; Beyer... (0) Master Soundboard Cassette... (0) Bertha Remaster of the... (0) flac16; Source:... (0) flac16; Recording... (0) flac24;... (0) flac24/96 ... (0) flac16/44.1 Source... (2)
Date User Comment