Browse Collections Artists Sources   Search Dates

Add Show    List Management    Help


Grateful Dead 08/13/87
Red Rocks Amphitheatre, Morrison, CO
Comments Add Comment    Source Collectors    Add to Collection    Add to Want List    History
Source # 81988 Other Sources
Entered by Matt Vernon
Checksums ffp , flac-md5
Disc Counts 2 / 2
Media Size
Date Circulated
Date Added
01/22/2007
01/23/2007
Source Summary flac16; AUD Source: Nakamichi CM-100's with CP-4 shotgun capsules > Marantz 420 cassette deck, with Dolby On. Set up in front row of taper's section. Taped by Jon Pasternak. Transfer: MAC > Nakamichi Dragon (Dolby on) > Tascam CDRW-5000 > CDR > EAC > Soundforge > CD-Wave > TLH v.1.0.0.72 (for SBE-OK, checksums and FLAC compression) > FLAC 
  Archive
Source Information - Download Text | Download Zip
GRATEFUL DEAD
Red Rocks
Morrison CO
08-13-1987

Disc One - Set One & Encore (68:01)

01 crowd & tuning
02 Big Boss Man
03 Jack Straw
04 Row Jimmy
05 It's All Over Now
06 Loser
07 Cassidy
08 Far From Me
09 Box of Rain
-- encore --
10 Not Fade Away Reprise >
11 Touch of Grey >
12 Knockin' on Heaven's Door

Disc Two - Set Two (77:01)

01 crowd & tuning
02 Uncle John's Band >
03 Estimated Prophet >
04 He's Gone >
05 Drums >
06 Spac//e >
07 The Wheel >
08 Gimme Some Lovin' >
09 Stella Blue >
10 Throwing Stones >
11 Not Fade Away

AUD Source: Nakamichi CM-100's with CP-4 shotgun capsules > Marantz 420
cassette deck, with Dolby On. Set up in front row of taper's section.
Taped by Jon Pasternak.

Transfer: MAC > Nakamichi Dragon (Dolby on) > Tascam CDRW-5000 > CDR >
EAC > Soundforge > CD-Wave > TLH v.1.0.0.72 (for SBE-OK, checksums and
FLAC compression) > FLAC, January 2007.

Notes:
- Tape flip at 4:36.222 in Space, mended together.
- Soundforge used to make fades and clean up around the tape flips.
- This was the final GD concert at Red Rocks.

md5

6554d2fc99629fcc321dd5d92ca7fab4 *gd1987-08-13d1t01.flac
c423280b39780abb6c0148488e168478 *gd1987-08-13d1t02.flac
c097d1dfe6bdf62eecc01e916e5f39bf *gd1987-08-13d1t03.flac
168d236476b6fb1dd0a9e5c58ee5a94a *gd1987-08-13d1t04.flac
e012ab036564a574a202eda1bd33c902 *gd1987-08-13d1t05.flac
672cc5926e1d668c0d7a72ca69a66a49 *gd1987-08-13d1t06.flac
bcde87ca60aa2dc4bd0f934813165aa2 *gd1987-08-13d1t07.flac
f848841f8441e608b104bc6fd682c9da *gd1987-08-13d1t08.flac
0173ac53e753efcadf92fd492f4feb37 *gd1987-08-13d1t09.flac
1d73a20a97f8c72f3e9c08a54ad37549 *gd1987-08-13d1t10.flac
831cb4fdd0d833695fdeab02ff7f01ac *gd1987-08-13d1t11.flac
598321ab745bf1d9f271cd021f3a8caa *gd1987-08-13d1t12.flac
a91aac54dbe4a7425472c5850151ff32 *gd1987-08-13d2t01.flac
8d51174e14247fa4c2e0146b8ea5818e *gd1987-08-13d2t02.flac
40e5468a2568b685c96d7fb60047edf0 *gd1987-08-13d2t03.flac
76a0affb595df35fbc67fd27de19cb3f *gd1987-08-13d2t04.flac
f86a78a48c4374b08cfa7f6bfd352917 *gd1987-08-13d2t05.flac
4c9940ff180dcbcc2d7a4191ddcc1053 *gd1987-08-13d2t06.flac
bef8603aa04290647dd1e0c8fa49bc29 *gd1987-08-13d2t07.flac
1c8097632efb12767c3f2998ad99a7c3 *gd1987-08-13d2t08.flac
31806ae7f8cc311e256c36a8f2d9f083 *gd1987-08-13d2t09.flac
53dea6f3a6204298c140198d5d5d3ac7 *gd1987-08-13d2t10.flac
65668df8219e4be89daef8c2a22f0921 *gd1987-08-13d2t11.flac

ffp

gd1987-08-13d1t01.flac:252fe4258610b050f74480bf63427940
gd1987-08-13d1t02.flac:3575c24654d89d9e5ef8fabf38109d36
gd1987-08-13d1t03.flac:9b031d7696dafb6d1091042f86145312
gd1987-08-13d1t04.flac:fd898cec6aa078654623d8483f27a1d2
gd1987-08-13d1t05.flac:87e894deec7626c3fbe94411dbe6b8dc
gd1987-08-13d1t06.flac:1b7e84dc8f2602a8b4b37d1f8a8fcfee
gd1987-08-13d1t07.flac:ee41e0a542744c54ca8b31ab86c74503
gd1987-08-13d1t08.flac:ef1946c3f73ae3956d05c0a7e28f6d60
gd1987-08-13d1t09.flac:9dca3cd0ec1e0e5aa52b954f0a48d112
gd1987-08-13d1t10.flac:67c24e1436a30076189a58bceaa0b681
gd1987-08-13d1t11.flac:9bd0ba8cfdc67fe53858bae5a4cbd101
gd1987-08-13d1t12.flac:2bbb8f97c16c27972d9fa2cea8e146e9
gd1987-08-13d2t01.flac:e8262ac13134e0ab3ffb1ecabbe34e95
gd1987-08-13d2t02.flac:ec4a13f4a3923ab67c32f93ccfbd5121
gd1987-08-13d2t03.flac:f5e635e8f6637d34c2f068c098070700
gd1987-08-13d2t04.flac:4f2e48ed4c33668c7dd09d68ca8fde77
gd1987-08-13d2t05.flac:e3abe5aaae4db92705319be0d6d8f9e0
gd1987-08-13d2t06.flac:7892558cf353addd65b5734ace78537d
gd1987-08-13d2t07.flac:0274963e67f5989bdafe661bff8dcd1f
gd1987-08-13d2t08.flac:9229b8d1cbe8b7825c72759fe4dcb6ed
gd1987-08-13d2t09.flac:bb06261c9c16d0999f8d7d5daf2de3d0
gd1987-08-13d2t10.flac:de9f8a7e3975cb91a35f8093181018d8
gd1987-08-13d2t11.flac:297c95d926993ea9fb53494d754ccc66

shntool

    length     expanded size   cdr  WAVE problems filename
     0:27.55        4892204    ---   --   ---xx   gd1987-08-13d1t01.flac
     6:12.00       65620844    ---   --   ---xx   gd1987-08-13d1t02.flac
     5:26.25       57565244    ---   --   ---xx   gd1987-08-13d1t03.flac
     9:44.25      103076444    ---   --   ---xx   gd1987-08-13d1t04.flac
     7:15.34       76814012    ---   --   ---xx   gd1987-08-13d1t05.flac
     7:49.21       82781036    ---   --   ---xx   gd1987-08-13d1t06.flac
     7:09.37       75762668    ---   --   ---xx   gd1987-08-13d1t07.flac
     4:21.20       46087484    ---   --   ---xx   gd1987-08-13d1t08.flac
     5:15.42       55664828    ---   --   ---xx   gd1987-08-13d1t09.flac
     1:12.08       12719660    ---   --   ---xx   gd1987-08-13d1t10.flac
     6:08.72       65084588    ---   --   ---xx   gd1987-08-13d1t11.flac
     6:58.51       73855196    ---   --   ---xx   gd1987-08-13d1t12.flac
     1:09.20       12218684    ---   --   ---xx   gd1987-08-13d2t01.flac
     6:46.09       71639612    ---   --   ---xx   gd1987-08-13d2t02.flac
    10:20.28      109433900    ---   --   ---xx   gd1987-08-13d2t03.flac
    10:56.26      115779596    ---   --   ---xx   gd1987-08-13d2t04.flac
     9:14.45       97831484    ---   --   ---xx   gd1987-08-13d2t05.flac
     5:41.31       60225356    ---   --   ---xx   gd1987-08-13d2t06.flac
     4:56.08       52233260    ---   --   ---xx   gd1987-08-13d2t07.flac
     4:59.04       52753052    ---   --   ---xx   gd1987-08-13d2t08.flac
     8:38.24       91431692    ---   --   ---xx   gd1987-08-13d2t09.flac
     8:28.43       89712380    ---   --   ---xx   gd1987-08-13d2t10.flac
     5:51.58       62052860    ---   --   ---xx   gd1987-08-13d2t11.flac
   145:03.11     1535236084 B                     (totals for 23 files, 0.5812 overall compression ratio)

There were no sector boundary errors.
Show Checksums
ffp
gd1987-08-13d1t01.flac:252fe4258610b050f74480bf63427940
gd1987-08-13d1t02.flac:3575c24654d89d9e5ef8fabf38109d36
gd1987-08-13d1t03.flac:9b031d7696dafb6d1091042f86145312
gd1987-08-13d1t04.flac:fd898cec6aa078654623d8483f27a1d2
gd1987-08-13d1t05.flac:87e894deec7626c3fbe94411dbe6b8dc
gd1987-08-13d1t06.flac:1b7e84dc8f2602a8b4b37d1f8a8fcfee
gd1987-08-13d1t07.flac:ee41e0a542744c54ca8b31ab86c74503
gd1987-08-13d1t08.flac:ef1946c3f73ae3956d05c0a7e28f6d60
gd1987-08-13d1t09.flac:9dca3cd0ec1e0e5aa52b954f0a48d112
gd1987-08-13d1t10.flac:67c24e1436a30076189a58bceaa0b681
gd1987-08-13d1t11.flac:9bd0ba8cfdc67fe53858bae5a4cbd101
gd1987-08-13d1t12.flac:2bbb8f97c16c27972d9fa2cea8e146e9
gd1987-08-13d2t01.flac:e8262ac13134e0ab3ffb1ecabbe34e95
gd1987-08-13d2t02.flac:ec4a13f4a3923ab67c32f93ccfbd5121
gd1987-08-13d2t03.flac:f5e635e8f6637d34c2f068c098070700
gd1987-08-13d2t04.flac:4f2e48ed4c33668c7dd09d68ca8fde77
gd1987-08-13d2t05.flac:e3abe5aaae4db92705319be0d6d8f9e0
gd1987-08-13d2t06.flac:7892558cf353addd65b5734ace78537d
gd1987-08-13d2t07.flac:0274963e67f5989bdafe661bff8dcd1f
gd1987-08-13d2t08.flac:9229b8d1cbe8b7825c72759fe4dcb6ed
gd1987-08-13d2t09.flac:bb06261c9c16d0999f8d7d5daf2de3d0
gd1987-08-13d2t10.flac:de9f8a7e3975cb91a35f8093181018d8
gd1987-08-13d2t11.flac:297c95d926993ea9fb53494d754ccc66
flac-md5
6554d2fc99629fcc321dd5d92ca7fab4 *gd1987-08-13d1t01.flac
c423280b39780abb6c0148488e168478 *gd1987-08-13d1t02.flac
c097d1dfe6bdf62eecc01e916e5f39bf *gd1987-08-13d1t03.flac
168d236476b6fb1dd0a9e5c58ee5a94a *gd1987-08-13d1t04.flac
e012ab036564a574a202eda1bd33c902 *gd1987-08-13d1t05.flac
672cc5926e1d668c0d7a72ca69a66a49 *gd1987-08-13d1t06.flac
bcde87ca60aa2dc4bd0f934813165aa2 *gd1987-08-13d1t07.flac
f848841f8441e608b104bc6fd682c9da *gd1987-08-13d1t08.flac
0173ac53e753efcadf92fd492f4feb37 *gd1987-08-13d1t09.flac
1d73a20a97f8c72f3e9c08a54ad37549 *gd1987-08-13d1t10.flac
831cb4fdd0d833695fdeab02ff7f01ac *gd1987-08-13d1t11.flac
598321ab745bf1d9f271cd021f3a8caa *gd1987-08-13d1t12.flac
a91aac54dbe4a7425472c5850151ff32 *gd1987-08-13d2t01.flac
8d51174e14247fa4c2e0146b8ea5818e *gd1987-08-13d2t02.flac
40e5468a2568b685c96d7fb60047edf0 *gd1987-08-13d2t03.flac
76a0affb595df35fbc67fd27de19cb3f *gd1987-08-13d2t04.flac
f86a78a48c4374b08cfa7f6bfd352917 *gd1987-08-13d2t05.flac
4c9940ff180dcbcc2d7a4191ddcc1053 *gd1987-08-13d2t06.flac
bef8603aa04290647dd1e0c8fa49bc29 *gd1987-08-13d2t07.flac
1c8097632efb12767c3f2998ad99a7c3 *gd1987-08-13d2t08.flac
31806ae7f8cc311e256c36a8f2d9f083 *gd1987-08-13d2t09.flac
53dea6f3a6204298c140198d5d5d3ac7 *gd1987-08-13d2t10.flac
65668df8219e4be89daef8c2a22f0921 *gd1987-08-13d2t11.flac

Comments
Add Comment
Other Sources (comments)
sbd > mc > dat X3 > wav >... (0) S:?>D>CD via Chris Larson (0) flac16; Source:... (0) flac16; Source Info:... (0)
Date User Comment