Browse Collections Artists Sources   Search Dates

Add Show    List Management    Help


Grateful Dead 11/26/80
The Sportatorium, Pembroke Pines, FL
Comments Add Comment    Source Collectors    Add to Collection    Add to Want List    History
Source # 82278 Other Sources
Entered by dr.unclear
Checksums shn-md5 , st5
Disc Counts 2 / 3
Media Size
Date Circulated
Date Added
01/29/2007
01/31/2007
Source Summary Main source: Master Soundboard Cassette > Cassette > DAT > CDR Patch source: Beyer M-160?s>Sony TC-D5>MC>DAT>CDRCD by Bill Tetzeli 
  Archive
Source Information - Download Text | Download Zip
Grateful Dead
11/26/80
Sportatorium
Pembroke PInes, FL
----------------------------------------------------------------------------------
Patch fix of shnid 3380

I patched in the beginnings of It Must Have Been the Roses, Cold Rain and Snow and Eyes of the World using the Jim Wise AUD (shnid 13065), downloaded from LMA.  2 second fades were used.  Resulting SBEs were fixed using shntool.  Because of the heavy crowd presence in the AUD, the transition between sources is a bit rough in the Eyes patch, less so for Roses and CR&S.

Many thanks to Scott Clugston for the main source and to Jim Wise for the patch source.

Bill Tetzeli ([email protected])
7:32 AM 1/29/2007
----------------------------------------------------------------------------------
Main source: Master Soundboard Cassette > Cassette > DAT > CDR
Patch source: Beyer M-160?s>Sony TC-D5>MC>DAT>CDRCD

CD Mastering by Scott Clugston
EAC'ed / SHN'ed by Scott Clugston
3/9/01

   Disc 1
   1st Set
1. Alabama Getaway>
2. GSET
3. FOTD
4. On The Road Again
5. Jackero
6. Minglewood Blues
7. IMHBTR
8. The Race Is On
9. Althea>
10.Lost Sailor>
11.Saint of Circumstance>
12.Deal

   Disc 2
   2nd Set
1. CR&S
2. Samson & Delilah
3. China Cat>
4. IKYR
5. Estimated>
6. Eyes>
7. Space>
8. Drums>

   Disc 3
1. Space>
2. Wharf Rat>
3. A & A>
4. Good Lovin'
   Encore
5. Satisfaction

MD5 checksum:

20a4848c56c36e686c5d0a92ed07e280 *gd80-11-26d1t01.shn
c277e8cfa25f14cf9bdd0d54663555fd *gd80-11-26d1t02.shn
3f28abb0fdf22510b28f95b829562c5d *gd80-11-26d1t03.shn
9f9bee04dabec7313ce8046622384e29 *gd80-11-26d1t04.shn
2daacd6be85e4fb065d2d1e26af282d6 *gd80-11-26d1t05.shn
f3a2c85da3c991009dc8bfff7c1709e1 *gd80-11-26d1t06.shn
03cc2ca71c441ea71e9eece874e41724 *gd80-11-26d1t07.shn
4535d11f993a63adbdd66d033254e5d8 *gd80-11-26d1t08.shn
6551c2e1c3b4a434239b4c759dad9b49 *gd80-11-26d1t09.shn
cdb29f6cb8bb96312efb4bc31bba8b70 *gd80-11-26d1t10.shn
91280c0d1fafe8147241a4aaa761a93c *gd80-11-26d1t11.shn
dd6dcf19d8142ea79a7137c5295a4ded *gd80-11-26d1t12.shn
96c4f22173f8953c139d1957e27eeb9f *gd80-11-26d2t01.shn
5f70f0a3c7efa5d38d7a2a1da746d7b6 *gd80-11-26d2t02.shn
a2b3000a3781e2f12a50c6e2160981ab *gd80-11-26d2t03.shn
b01b91d74afcfd7af95d619ecd437a81 *gd80-11-26d2t04.shn
64cea9ee441f1523db6b15206d387479 *gd80-11-26d2t05.shn
7530cff9313e990d87b19c5912e35767 *gd80-11-26d2t06.shn
bbf5a4aa670e91cd4d80e6a8e1f8dac7 *gd80-11-26d2t07.shn
225ca47f47639fd9ef75aebe3dcecead *gd80-11-26d2t08.shn
36e6c8c3a39d37b1804ec7ba25243ebd *gd80-11-26d3t01.shn
f94fd594eab3d5b842a938c8bbe697bc *gd80-11-26d3t02.shn
34d298c9e567283689ac93224280c309 *gd80-11-26d3t03.shn
e91d6e3403f457eba85af035361fde84 *gd80-11-26d3t04.shn
1ed5b7512b7d95eea0320df2c8293b16 *gd80-11-26d3t05.shn

shntool output:

    length     expanded size   cdr  WAVE problems filename
     4:31.06       47818556    ---   --   ---xx   gd80-11-26d1t01.shn
     4:04.72       43210988    ---   --   ---xx   gd80-11-26d1t02.shn
     9:41.00      102488444    ---   --   ---xx   gd80-11-26d1t03.shn
     4:16.62       45304268    ---   --   ---xx   gd80-11-26d1t04.shn
     5:24.63       57301820    ---   --   ---xx   gd80-11-26d1t05.shn
     7:36.54       80565452    ---   --   ---xx   gd80-11-26d1t06.shn
     6:52.26       72737996    ---   --   ---xx   gd80-11-26d1t07.shn
     4:54.69       52023932    ---   --   ---xx   gd80-11-26d1t08.shn
     8:04.07       85394108    ---   --   ---xx   gd80-11-26d1t09.shn
     6:38.00       70207244    ---   --   ---xx   gd80-11-26d1t10.shn
     5:59.27       63391148    ---   --   ---xx   gd80-11-26d1t11.shn
     7:26.54       78801452    ---   --   ---xx   gd80-11-26d1t12.shn
     7:27.42       78949628    ---   --   ---xx   gd80-11-26d2t01.shn
     8:28.56       89742956    ---   --   ---xx   gd80-11-26d2t02.shn
     6:35.72       69847388    ---   --   ---xx   gd80-11-26d2t03.shn
     5:57.68       63134780    ---   --   ---xx   gd80-11-26d2t04.shn
    10:32.20      111531884    ---   --   ---xx   gd80-11-26d2t05.shn
     8:24.42       89004428    ---   --   ---xx   gd80-11-26d2t06.shn
     7:24.64       78472172    ---   --   ---xx   gd80-11-26d2t07.shn
     9:16.66       98233676    ---   --   ---xx   gd80-11-26d2t08.shn
     6:39.45       70489484    ---   --   ---xx   gd80-11-26d3t01.shn
     9:59.56      105795356    ---   --   ---xx   gd80-11-26d3t02.shn
     4:09.69       44085932    ---   --   ---xx   gd80-11-26d3t03.shn
     7:51.61       83227916    ---   --   ---xx   gd80-11-26d3t04.shn
     4:17.14       45367772    ---   --   ---xx   gd80-11-26d3t05.shn
   172:37.65     1827128780 B                     (totals for 25 files, 0.5620 overall compression ratio)
Show Checksums
shn-md5
20a4848c56c36e686c5d0a92ed07e280 *gd80-11-26d1t01.shn
c277e8cfa25f14cf9bdd0d54663555fd *gd80-11-26d1t02.shn
3f28abb0fdf22510b28f95b829562c5d *gd80-11-26d1t03.shn
9f9bee04dabec7313ce8046622384e29 *gd80-11-26d1t04.shn
2daacd6be85e4fb065d2d1e26af282d6 *gd80-11-26d1t05.shn
f3a2c85da3c991009dc8bfff7c1709e1 *gd80-11-26d1t06.shn
03cc2ca71c441ea71e9eece874e41724 *gd80-11-26d1t07.shn
4535d11f993a63adbdd66d033254e5d8 *gd80-11-26d1t08.shn
6551c2e1c3b4a434239b4c759dad9b49 *gd80-11-26d1t09.shn
cdb29f6cb8bb96312efb4bc31bba8b70 *gd80-11-26d1t10.shn
91280c0d1fafe8147241a4aaa761a93c *gd80-11-26d1t11.shn
dd6dcf19d8142ea79a7137c5295a4ded *gd80-11-26d1t12.shn
96c4f22173f8953c139d1957e27eeb9f *gd80-11-26d2t01.shn
5f70f0a3c7efa5d38d7a2a1da746d7b6 *gd80-11-26d2t02.shn
a2b3000a3781e2f12a50c6e2160981ab *gd80-11-26d2t03.shn
b01b91d74afcfd7af95d619ecd437a81 *gd80-11-26d2t04.shn
64cea9ee441f1523db6b15206d387479 *gd80-11-26d2t05.shn
7530cff9313e990d87b19c5912e35767 *gd80-11-26d2t06.shn
bbf5a4aa670e91cd4d80e6a8e1f8dac7 *gd80-11-26d2t07.shn
225ca47f47639fd9ef75aebe3dcecead *gd80-11-26d2t08.shn
36e6c8c3a39d37b1804ec7ba25243ebd *gd80-11-26d3t01.shn
f94fd594eab3d5b842a938c8bbe697bc *gd80-11-26d3t02.shn
34d298c9e567283689ac93224280c309 *gd80-11-26d3t03.shn
e91d6e3403f457eba85af035361fde84 *gd80-11-26d3t04.shn
1ed5b7512b7d95eea0320df2c8293b16 *gd80-11-26d3t05.shn
st5
73dee956453ec09a4aee10c311aa7ced [shntool] gd80-11-26d1t01.shn
dd070adb8b9b9073fc556de44f07e6ae [shntool] gd80-11-26d1t02.shn
460202fb12d8657da6cacb28168102ca [shntool] gd80-11-26d1t03.shn
dc1567d4242118fac49c6f8e7dfa98f3 [shntool] gd80-11-26d1t04.shn
36d45267b355e95e485c703a278c3d73 [shntool] gd80-11-26d1t05.shn
af9593d820aa42225f33770c589404be [shntool] gd80-11-26d1t06.shn
f9279ecc0375c40961840155794ded93 [shntool] gd80-11-26d1t07.shn
0a8f7c4f42cd503df83a7fb7769fff36 [shntool] gd80-11-26d1t08.shn
ed6b95168fb747278209cef606e141fa [shntool] gd80-11-26d1t09.shn
db17a48edb8dd542d2731bd1f22c86e0 [shntool] gd80-11-26d1t10.shn
68d0983bbc957621eda86222e56f619d [shntool] gd80-11-26d1t11.shn
7c8d9311b9b54186dac2deff402d539b [shntool] gd80-11-26d1t12.shn
a4e0fddca4970615e6a073b5ad4a535e [shntool] gd80-11-26d2t01.shn
59323ae222fd56e4b884bbb352d561a5 [shntool] gd80-11-26d2t02.shn
055234752dca3af35f47cba8d9c20753 [shntool] gd80-11-26d2t03.shn
0967ec80afa411ea654fd2d80afc00e9 [shntool] gd80-11-26d2t04.shn
fb6d29fa750ca461a3c0d5f54ecf6834 [shntool] gd80-11-26d2t05.shn
370c730535cb0009c4dc7c96d703b799 [shntool] gd80-11-26d2t06.shn
9b7bb367dfb2bbd45690280841ef9579 [shntool] gd80-11-26d2t07.shn
a5243b6d8a7b4bb24b02aa35c777b2c8 [shntool] gd80-11-26d2t08.shn
791c5faf031624800b1ba30572f092e5 [shntool] gd80-11-26d3t01.shn
d0ebd38df22972c7f3cd7fadc7a7f454 [shntool] gd80-11-26d3t02.shn
f2df8f6f26bdfb371c1fb976ab826e48 [shntool] gd80-11-26d3t03.shn
2ae4b5b2839af5fb895a1b103aa38fb7 [shntool] gd80-11-26d3t04.shn
3d7976e7bc0d1c3bf11993ef714927e2 [shntool] gd80-11-26d3t05.shn

Comments
Add Comment
Other Sources (comments)
Master Soundboard Cassette... (0) Recording by Jim Wise:... (0) flac16; Recording... (0) flac16/48kHz;... (0) flac24; Cassette... (1) flac16; 2 Source... (0) flac16; Recording... (1) flac16; Recording... (0)
Date User Comment