Browse Collections Artists Sources   Search Dates

Add Show    List Management    Help


Grateful Dead 04/02/87
The Centrum, Worcester, MA
Comments Add Comment    Source Collectors    Add to Collection    Add to Want List    History
Source # 82310 Other Sources
Entered by Matt Vernon
Checksums ffp , flac-md5
Disc Counts 2 / 2
Media Size
Date Circulated
Date Added
02/02/2007
02/02/2007
Source Summary flac16; Recording Info: SBD -> Cassette Master -> Cassette Transfer Info: Cassette Master (Sony TC-WE475) -> Sony R500 (Pass Through w/ SBM On) -> SEK'D Prodif Plus -> Samplitude Professional v8.01 -> FLAC All Transfers and Mastering By Charlie Miller 
  Archive
Source Information - Download Text | Download Zip
Grateful Dead - April 2, 1987
The Centrum - Worcester, MA

Recording Info:
SBD -> Cassette Master -> Cassette

Transfer Info:
Cassette Master (Sony TC-WE475) -> Sony R500 (Pass Through w/ SBM On) ->
SEK'D Prodif Plus -> Samplitude Professional v8.01 -> FLAC
(2 Discs Audio / 2 Discs FLAC)

All Transfers and Mastering By Charlie Miller
[email protected]
May 30, 2006

Notes:
-- Encore is on end of 1st Set to fit show on 2 discs
-- Set 2 and Encore can be rejoined seamlessly
-- Thanks to Steve Marcus for the cassettes
-- This is a pretty hissy matrix sbd with lots of audience
-- I have SBD's of the whole tour, not too sure if they're worth circulating

Set 1:
d1t01 - Tuning
d1t02 - Cold Rain And Snow ->
d1t03 - New Minglewood Blues
d1t04 - Dupree's Diamond Blues
d1t05 - Far From Me
d1t06 - Me And My Uncle ->
d1t07 - Mexicali Blues
d1t08 - When Push Comes To Shove
d1t09 - Beat It On Down The Line
d1t10 - Bird Song ->
d1t11 - The Music Never Stopped

Set 2:
d2t01 - Scarlet Begonias ->
d2t02 - Fire On The Mountain
d2t03 - Looks Like Rain
d2t04 - Eyes Of The World ->
d2t05 - Drums ->
d2t06 - Space ->
d2t07 - Gimme Some Lovin' ->
d2t08 - The Wheel ->
d2t09 - Black Peter ->
d2t10 - Around And Around ->
d2t11 - Good Lovin'

Encore:
d1t12 - Crowd/Tuning
d1t13 - Black Muddy River


SHNTOOL OUTPUT:
    length     expanded size   cdr  WAVE problems filename
     1:28.48       15636140    ---   --   -----   gd87-04-02d1t01.wav
     6:27.17       68306828    ---   --   -----   gd87-04-02d1t02.wav
     8:57.74       94900892    ---   --   -----   gd87-04-02d1t03.wav
     7:28.70       79191884    ---   --   -----   gd87-04-02d1t04.wav
     5:34.37       59004668    ---   --   -----   gd87-04-02d1t05.wav
     2:59.67       31733228    ---   --   -----   gd87-04-02d1t06.wav
     5:27.17       57722828    ---   --   -----   gd87-04-02d1t07.wav
     5:58.47       63261788    ---   --   -----   gd87-04-02d1t08.wav
     3:11.04       33701852    ---   --   -----   gd87-04-02d1t09.wav
    10:03.08      106388060    ---   --   -----   gd87-04-02d1t10.wav
     6:46.56       71750156    ---   --   -----   gd87-04-02d1t11.wav
     0:49.21        8693036    ---   --   -----   gd87-04-02d1t12.wav
     6:45.22       71493788    ---   --   -----   gd87-04-02d1t13.wav
     7:40.32       81219308    ---   --   -----   gd87-04-02d2t01.wav
     9:58.61      105630716    ---   --   -----   gd87-04-02d2t02.wav
     8:06.11       85756316    ---   --   -----   gd87-04-02d2t03.wav
     6:59.74       74085692    ---   --   -----   gd87-04-02d2t04.wav
    10:21.14      109577372    ---   --   -----   gd87-04-02d2t05.wav
     6:04.65       64362524    ---   --   -----   gd87-04-02d2t06.wav
     4:36.33       48764060    ---   --   -----   gd87-04-02d2t07.wav
     4:08.63       43895420    ---   --   -----   gd87-04-02d2t08.wav
     9:32.47      101011388    ---   --   -----   gd87-04-02d2t09.wav
     3:38.58       38591660    ---   --   -----   gd87-04-02d2t10.wav
     8:20.52       88322348    ---   --   -----   gd87-04-02d2t11.wav
   151:27.23     1603001952 B                     (totals for 24 files)
Show Checksums
ffp
gd87-04-02d1t01.flac:c848f1d1742a9c3789f44c74528a1503
gd87-04-02d1t02.flac:57d54685994ff5691276d448fc8364d4
gd87-04-02d1t03.flac:13c11d7d73c8e91038105815c66588ad
gd87-04-02d1t04.flac:1a275969bdc38062cd0f951d449a5e39
gd87-04-02d1t05.flac:5fb47229493fe8b8731316253d0ddf7c
gd87-04-02d1t06.flac:0dcae6eb2d2d777d715e275c19fd4183
gd87-04-02d1t07.flac:1f66696446d50a65d59d2ae78c968aea
gd87-04-02d1t08.flac:b328d122a47ccaf153c8b354919747a0
gd87-04-02d1t09.flac:692c923ffe97cc3c20444eae933c3912
gd87-04-02d1t10.flac:3c1c0912abfb54c2cfd3d4e3ab3d80b3
gd87-04-02d1t11.flac:e114188cc243de26f6b5bb254ce42ff1
gd87-04-02d1t12.flac:3c19accfcf78fb554dd2074a09787cbc
gd87-04-02d1t13.flac:fb7b43f60f465463cabb8ac6d63e1f20
gd87-04-02d2t01.flac:a854bb6015b2a82b1fc08a6f67a8542d
gd87-04-02d2t02.flac:6017edafb9ceb6253eb899d34fde9e77
gd87-04-02d2t03.flac:d962307498031fc15b6e4e44443cc936
gd87-04-02d2t04.flac:42969ac97bd3b0b1c89b0abc06617fcb
gd87-04-02d2t05.flac:754f1920c6f70e374ef355b6db0e554d
gd87-04-02d2t06.flac:263fc6d778cd847f8fd1352c8149f4d1
gd87-04-02d2t07.flac:4eae2c543a9996f8754c62cc6d2c4950
gd87-04-02d2t08.flac:126f513bd6a1b6f50cf727a26e6b5582
gd87-04-02d2t09.flac:6dedc38ef2096cc8f945f1ce5c26152d
gd87-04-02d2t10.flac:b7ddca2d3a8537868c86fdaadf633a65
gd87-04-02d2t11.flac:90383b361d160d98b47e4e1379ee10f1
flac-md5
1a3fbeaebcb90460b8e593be3a6db11d *gd87-04-02d1t01.flac
f74285893c5141923f460996d8a8c0e5 *gd87-04-02d1t02.flac
d089216884381a9595739f8fdcf29d8d *gd87-04-02d1t03.flac
6fffc3962aa0f3d1fc09aa2b157806af *gd87-04-02d1t04.flac
709a87e9c6b582ed0bf96464f28ad4f2 *gd87-04-02d1t05.flac
27667fd20fa898ce9eebfb6c8b5c47c7 *gd87-04-02d1t06.flac
7abaf3ad04628002ed9a68100610c7fe *gd87-04-02d1t07.flac
e9bcb08727442c62338bdac7d05df0b8 *gd87-04-02d1t08.flac
777e7c2c38d510956f08abe7c6a71370 *gd87-04-02d1t09.flac
94d676d5c7a87e5d728b5ffe4241db79 *gd87-04-02d1t10.flac
5d3fc6825131a90b81a60848cb50b890 *gd87-04-02d1t11.flac
49c79eb17254c97f5e79102af2b543a9 *gd87-04-02d1t12.flac
18526c459c8c591d2b72e6b6c9881971 *gd87-04-02d1t13.flac
f76746042a72d5cf1030afd5e5866b83 *gd87-04-02d2t01.flac
cb28a840d5838b2adc73f0edd2650091 *gd87-04-02d2t02.flac
64e299d5d266e41e7a49b6b7bf7ba68c *gd87-04-02d2t03.flac
5c24348ab919fa650b681ab0d358aa49 *gd87-04-02d2t04.flac
2e55ef38ff9af032403d2ef38b225d39 *gd87-04-02d2t05.flac
1b426ea246bc5c38434dccafbbc50921 *gd87-04-02d2t06.flac
8626086216eaf1e7dc675f53c116b287 *gd87-04-02d2t07.flac
1b11fabdca94ff0085bce7efc5d6e6e0 *gd87-04-02d2t08.flac
637ec397b1fdba8e15357ce2c7a5f189 *gd87-04-02d2t09.flac
4ac4f06df7931f371df4ac1ad73aad63 *gd87-04-02d2t10.flac
c96213cb9a8ef5c1d43a1e0fd906017c *gd87-04-02d2t11.flac

Comments
Add Comment
Other Sources (comments)
AUD>PCM>DAT>CDR; via... (0) flac16; nak 300 mics... (0) flac16; Recording... (0) flac16; Nakamichi... (0) flac24; Master... (0) flac16; Master... (0) flac24; Recording... (0) flac16; Recording... (0) flac24; source: nak... (1) flac16; source: nak... (2) flac16; Recording... (0) flac24; Recording... (0) flac16; Set 2 Source... (0)
Date User Comment