Browse Collections Artists Sources   Search Dates

Add Show    List Management    Help


Zero 01/03/07
Jam Cruise 5 - Teatro dell'Opera, MSC Opera, Ocean
Comments Add Comment    Source Collectors    Add to Collection    Add to Want List    History
Source # 82331 Other Sources
Entered by
Checksums flac.md5 , flac.ffp
Disc Counts 2 / 2
Media Size
Date Circulated
Date Added
01/25/2007
02/03/2007
Source Summary Source : MK4>ORTF>KC5>CMC6>KindKables>V3>SPDIF>MT16/48 (HPF 0)
Location: FOB/DFC 30' back, Stand 6 1/2 feet
Transfer: MT16/48>usb>CDWave>Fades with Wavelab 5.0>FLAC (level 7) 
Source Information - Download Text | Download Zip
Zero
Teatro dell'Opera
Jamcruise 5
January 3rd, 2007

Source : MK4>ORTF>KC5>CMC6>KindKables>V3>SPDIF>MT16/48 (HPF 0)

Location: FOB/DFC 30' back, Stand  6 1/2 feet

Transfer: MT16/48>usb>CDWave>Fades with Wavelab 5.0>FLAC (level 7)

Resampled with Wavelab 5.0

Taped and Transfered by: Bennett Schwartz (coloartist)

***Support Live Music***

---> NEVER FOR SALE--FOR PERSONAL USE ONLY <---

www.kimock.com
www.jamcruise.com
www.moboogie.net


Set 1

Disc 1

1)  Gregg's Eggs
2)  Catalina
3)  Baby Baby
4)  Crazy Fingers

Set 2

Disc 2

1)  Intro
2)  Sun Sun Sun
3)  Merle's Boogie
4)  A Little Help From My Friends
5)  Use Me Up


Big thanks to all the Zero crew!! Especially the Kimock family and Charlie Miller.


If you like this, go to http://app1.dsbd.net/dsb/artistdetail.jsp?show=ZER01-S0000492 for the official
soundboard matrix.


Lineup:
Steve Kimock - guitars
Greg Anton - drums
John Morgan Kimock - drums
Martin Fierro - saxophone
Melvin Seals - keys
Donna Jean Godchaux Mackay - vocals
Liam Hanrahan - bass
Craig Wright - vocals, guitar
George Porter Jr. - bass (Sun Sun Sun and Merle's Boogie)
Zach Gill - Vocals (A Little Help and Use Me Up)
Dan Lebowitz - guitar (A Little Help and Use Me Up)




SHNTOOL:

        length     expanded size   cdr  WAVE problems filename
    28:06.04      297419852    ---   --   ---xx   zero2007-01-03d1t01.flac
    12:20.23      130590140    ---   --   ---xx   zero2007-01-03d1t02.flac
    13:48.10      146082764    ---   --   ---xx   zero2007-01-03d1t03.flac
    15:35.28      164999900    ---   --   ---xx   zero2007-01-03d1t04.flac
     2:52.54       30467852    ---   --   ---xx   zero2007-01-03d2t01.flac
    22:42.31      240329756    ---   --   ---xx   zero2007-01-03d2t02.flac
    17:51.66      189079676    ---   --   ---xx   zero2007-01-03d2t03.flac
     6:53.49       72968492    ---   --   ---xx   zero2007-01-03d2t04.flac
    11:33.36      122329916    ---   --   ---xx   zero2007-01-03d2t05.flac
   131:44.01     1394268348 B                     (totals for 9 files, 0.5284 overall compression ratio)
Show Checksums
flac.md5
7f83826682e99991dcfddace51974d9e *zero2007-01-03d1t01.flac
f80f6bad99d14cf637395737487ddf90 *zero2007-01-03d1t02.flac
eba78947980880513d8ff5fd8f67fe5f *zero2007-01-03d1t03.flac
73e6d9414e7c73f18c558a457a351cf3 *zero2007-01-03d1t04.flac
099bc105cd44c9be0512d135f43aeec7 *zero2007-01-03d2t01.flac
d707604d4c4a46496e29bf4de1c3e4ec *zero2007-01-03d2t02.flac
8b6fe80cc446bb0578318a11b78763b3 *zero2007-01-03d2t03.flac
73c0197f687727888e34bf7fd08c7826 *zero2007-01-03d2t04.flac
51e5857177e807b6db50525f8d132115 *zero2007-01-03d2t05.flac
flac.ffp

zero2007-01-03d1t01.flac:d62a63fc6ba384ab94f63abd15b45ea2
zero2007-01-03d1t02.flac:cdfbc7499f086f765e4a3373bf06a6ee
zero2007-01-03d1t03.flac:54f2f8a0178ac2b03372081f0af4982d
zero2007-01-03d1t04.flac:ba3419fc19d990da2f7fcc67f493ed03
zero2007-01-03d2t01.flac:c4947d029b08d722bbe483b42c66be14
zero2007-01-03d2t02.flac:51615974e78401344b2d1b9f61754aa2
zero2007-01-03d2t03.flac:0483ac03cca11fc19f156a4f28322851
zero2007-01-03d2t04.flac:6742af3f90d1799de7bb6de710bfc8fb
zero2007-01-03d2t05.flac:2177e307e08926e650787c7055764959

Comments
Add Comment
Date User Comment