Browse Collections Artists Sources   Search Dates

Add Show    List Management    Help


Garcia 02/13/80
Palace Theatre, Albany, NY
Comments Add Comment    Source Collectors    Add to Collection    Add to Want List    History
Source # 82400 Other Sources
Entered by Joe Jupille
Checksums ffp , md5
Disc Counts 1 / 2
Media Size
Date Circulated
Date Added
02/04/2007
02/06/2007
Source Summary JGB: AUD > ? > Cass > CD > EAC > Sound Forge > CD Wave Audio Editor > CD > EAC > TLH > Flac. 
Source Information - Download Text | Download Zip
JERRY GARCIA BAND
The Palace Theater
Albany, NY
02-13-1980

Partial Show - Audience tape of unknown lineage

Disc One (41:45)

01 How Sweet It Is
02 Friend of the Devil
03 Simple Twist of Fate
04 Let it Rock

Disc Two (46:10)

01 That's Alright Mama
02 Sugaree
-- set break --
03 crowd & tuning
04 Tore Up Over You
05 I'll Take a Melody// (cut)

Missing Songs:
Positively 4th Street
The Harder They Come
Encore: When I Paint My Masterpiece

MAC > ? > Maxell XLII-90 (no Dolby) > Nakamichi Dragon (no Dolby
on playback) > HHB-830plus CDR > EAC > Soundforge 6.0 (removed
gaps, glitches, harsh noises, smoothed transitions between songs)
3/2005 > CD Wave Audio Editor 1.94.5 > CDR, by Anne Cohen. CDR >
EAC > TLH v.1.0.0.72 > FLAC, 2/2007 by Andrew F. Made from a
cassette kindly provided by Walter Keenan.    **ENJOY!**

md5

b16fc675e65b5c1ef31aa84fc8ea60aa *jgb1980-02-13d1t01.flac
a1c67d0dee44a27214ea6461ae4da502 *jgb1980-02-13d1t02.flac
3a5b58f74aadee63e500bdf34fe42016 *jgb1980-02-13d1t03.flac
bdc407b37f9d3e86db32825ecd4abc44 *jgb1980-02-13d1t04.flac
e24ee5378ea21c734702a06616358942 *jgb1980-02-13d2t01.flac
9737c786634a090abb674c0a7567e938 *jgb1980-02-13d2t02.flac
025ffff41753272ed3e054c29a8d02ad *jgb1980-02-13d2t03.flac
69fcb390876358ddc56a5f0b577d3fea *jgb1980-02-13d2t04.flac
6f777356bc3ac47b8ba9b9f28cfee5da *jgb1980-02-13d2t05.flac

ffp

jgb1980-02-13d1t01.flac:f855df1c9169c216be939694f25d12aa
jgb1980-02-13d1t02.flac:8e83998d6ed73b652adae9aefcd8d26e
jgb1980-02-13d1t03.flac:164cbd4afb64629cd3988ab9f494d0dc
jgb1980-02-13d1t04.flac:a1bbb3ea45d9c2c46373a30f7c7ad242
jgb1980-02-13d2t01.flac:45a42fbfaa8d43df1df2daf30da91729
jgb1980-02-13d2t02.flac:a3acfbb5fcbfdee797f3f66970ce0dc9
jgb1980-02-13d2t03.flac:4d73d2b86f58f22bef72748c0ba192f3
jgb1980-02-13d2t04.flac:359c88249aaf652e0ffdcd3e6c90773a
jgb1980-02-13d2t05.flac:23fbe918f73575798d2a1dbf80fcbec7

shntool

    length     expanded size   cdr  WAVE problems filename
     7:50.39       82999772    ---   --   ---xx   jgb1980-02-13d1t01.flac
     9:53.24      104661692    ---   --   ---xx   jgb1980-02-13d1t02.flac
    13:46.00      145706444    ---   --   ---xx   jgb1980-02-13d1t03.flac
    10:16.35      108744764    ---   --   ---xx   jgb1980-02-13d1t04.flac
     7:14.49       76672892    ---   --   ---xx   jgb1980-02-13d2t01.flac
    15:14.66      161384876    ---   --   ---xx   jgb1980-02-13d2t02.flac
     1:39.63       17611820    ---   --   ---xx   jgb1980-02-13d2t03.flac
    10:25.08      110268860    ---   --   ---xx   jgb1980-02-13d2t04.flac
    11:38.32      123202508    ---   --   ---xx   jgb1980-02-13d2t05.flac
    87:59.16      931253628 B                     (totals for 9 files, 0.5937 overall compression ratio)

There were no sector boundary errors.
Show Checksums
ffp
jgb1980-02-13d1t01.flac:f855df1c9169c216be939694f25d12aa
jgb1980-02-13d1t02.flac:8e83998d6ed73b652adae9aefcd8d26e
jgb1980-02-13d1t03.flac:164cbd4afb64629cd3988ab9f494d0dc
jgb1980-02-13d1t04.flac:a1bbb3ea45d9c2c46373a30f7c7ad242
jgb1980-02-13d2t01.flac:45a42fbfaa8d43df1df2daf30da91729
jgb1980-02-13d2t02.flac:a3acfbb5fcbfdee797f3f66970ce0dc9
jgb1980-02-13d2t03.flac:4d73d2b86f58f22bef72748c0ba192f3
jgb1980-02-13d2t04.flac:359c88249aaf652e0ffdcd3e6c90773a
jgb1980-02-13d2t05.flac:23fbe918f73575798d2a1dbf80fcbec7
md5
b16fc675e65b5c1ef31aa84fc8ea60aa *jgb1980-02-13d1t01.flac
a1c67d0dee44a27214ea6461ae4da502 *jgb1980-02-13d1t02.flac
3a5b58f74aadee63e500bdf34fe42016 *jgb1980-02-13d1t03.flac
bdc407b37f9d3e86db32825ecd4abc44 *jgb1980-02-13d1t04.flac
e24ee5378ea21c734702a06616358942 *jgb1980-02-13d2t01.flac
9737c786634a090abb674c0a7567e938 *jgb1980-02-13d2t02.flac
025ffff41753272ed3e054c29a8d02ad *jgb1980-02-13d2t03.flac
69fcb390876358ddc56a5f0b577d3fea *jgb1980-02-13d2t04.flac
6f777356bc3ac47b8ba9b9f28cfee5da *jgb1980-02-13d2t05.flac

Comments
Add Comment
Date User Comment