Browse Collections Artists Sources   Search Dates

Add Show    List Management    Help


Grateful Dead 04/15/89
The Mecca, Milwaukee, WI
Comments Add Comment    Source Collectors    Add to Collection    Add to Want List    History
Source # 82405 Other Sources
Entered by Matt Vernon
Checksums ffp , flac-md5
Disc Counts 2 / 2
Media Size
Date Circulated
Date Added
02/06/2007
02/07/2007
Source Summary flac16; Recording Info: SBD -> Cassette Master (TDK MA-XG90) Transfer Info: Cassette Master (Tascam 122mkII) -> Apogee MiniMe (24bit/48k) -> Samplitude Professional v8.01 -> FLAC/16 All Transfers and Mastering By Charlie Miller 
  Archive
Source Information - Download Text | Download Zip
Grateful Dead - April 15, 1989
The Mecca - Milwaukee, WI

Recording Info:
SBD -> Cassette Master (TDK MA-XG90)

Transfer Info:
Cassette Master (Tascam 122mkII) -> Apogee MiniMe (24bit/48k) ->
Samplitude Professional v8.01 -> FLAC/16
(2 Discs Audio / 2 Discs FLAC)

All Transfers and Mastering By Charlie Miller
[email protected]
December 17, 2006

Patch Info:
(2) Nakamichi 300/CP4 + (2) Sennheiser 441 -> Cassette Master -> CD
Space (2:55 - 3:03)

Notes:
-- Encore moved to end of 1st set to fit show onto 2 discs
-- 2nd Set and Encore can be re-joined seamlessly
-- Thanks to Paul Scotton and Joani Walker for the tapes
-- Patch source recorded By Steve Cherson

Set 1:
d1t01 - Tuning
d1t02 - Mississippi Half-Step Uptown Toodeloo ->
d1t03 - Feel Like A Stranger ->
d1t04 - Franklin's Tower ->
d1t05 - Walkin' Blues
d1t06 - When Push Comes To Shove
d1t07 - Queen Jane Approximately
d1t08 - Blow Away ->
d1t09 - The Promised Land

Set 2:
d2t01 - Tuning
d2t02 - China Cat Sunflower ->
d2t03 - I Know You Rider
d2t04 - Playing In The Band ->
d2t05 - Terrapin Station ->
d2t06 - Drums ->
d2t07 - Space ->
d2t08 - I Will Take You Home ->
d2t09 - All Along The Watchtower ->
d2t10 - Morning Dew

Encore:
d1t10 - Crowd/Tuning
d1t11 - One More Saturday Night


SHNTOOL OUTPUT:
    length     expanded size   cdr  WAVE problems filename
     0:48.12        8495468    ---   --   -----   gd89-04-15d1t01.wav
     7:01.24       74320892    ---   --   -----   gd89-04-15d1t02.wav
     7:49.47       82842188    ---   --   -----   gd89-04-15d1t03.wav
     8:43.54       92384252    ---   --   -----   gd89-04-15d1t04.wav
     7:48.31       82628156    ---   --   -----   gd89-04-15d1t05.wav
     5:39.49       59914892    ---   --   -----   gd89-04-15d1t06.wav
     8:29.01       89789996    ---   --   -----   gd89-04-15d1t07.wav
     9:45.11      103219916    ---   --   -----   gd89-04-15d1t08.wav
     4:53.38       51774620    ---   --   -----   gd89-04-15d1t09.wav
     3:16.67       34732028    ---   --   -----   gd89-04-15d1t10.wav
     5:12.62       55182668    ---   --   -----   gd89-04-15d1t11.wav
     1:12.45       12806684    ---   --   -----   gd89-04-15d2t01.wav
     5:04.70       53790284    ---   --   -----   gd89-04-15d2t02.wav
     6:13.31       65870156    ---   --   -----   gd89-04-15d2t03.wav
     8:07.61       86050316    ---   --   -----   gd89-04-15d2t04.wav
    13:04.74      138471692    ---   --   -----   gd89-04-15d2t05.wav
    10:18.61      109158716    ---   --   -----   gd89-04-15d2t06.wav
     8:30.31       90036956    ---   --   -----   gd89-04-15d2t07.wav
     4:06.41       43490876    ---   --   -----   gd89-04-15d2t08.wav
     6:26.42       68189228    ---   --   -----   gd89-04-15d2t09.wav
    13:08.74      139177292    ---   --   -----   gd89-04-15d2t10.wav
   145:43.26     1542327276 B                     (totals for 21 files)
Show Checksums
ffp
gd89-04-15d1t01.flac:e9c8fbb1c06f29ab6e9b3ac2a8e1910f
gd89-04-15d1t02.flac:a3be840e262034df08b22ac5b14aca0e
gd89-04-15d1t03.flac:d9da9ff4b113c1cd2e756bebd0f3b665
gd89-04-15d1t04.flac:cb1aa561cef122d83b18d02e5e33e754
gd89-04-15d1t05.flac:dc32a27df0e706a57d0fc05eda3c7b10
gd89-04-15d1t06.flac:04f08d9b2ca294139c43b2821a6ce5c1
gd89-04-15d1t07.flac:4f33d7966d43b2ec4037715a94db65b1
gd89-04-15d1t08.flac:797a4a3cadcda227910ec904983b1eb3
gd89-04-15d1t09.flac:e7e170853a44a8f4f239db100811a091
gd89-04-15d1t10.flac:9e3ea6132dd66ae2628392897bb1085d
gd89-04-15d1t11.flac:83ed0369d4cbaa5e987f88fe38b7b945
gd89-04-15d2t01.flac:1fe702fb00e249638a8c6009f573a92f
gd89-04-15d2t02.flac:25269df454243b5499d2aa15e4a9ac3d
gd89-04-15d2t03.flac:78e2ee68df5782d794179b0519b5346b
gd89-04-15d2t04.flac:a1c71c2e37c6f04f6f49082ce8de6be1
gd89-04-15d2t05.flac:2310d081d43d3e85403935c16c91271c
gd89-04-15d2t06.flac:79f6403e255566bd49dbb972959d0948
gd89-04-15d2t07.flac:b346e3fc5c8c8154583a7fde44c03c2b
gd89-04-15d2t08.flac:815d56d9ebea4b7869beb1a3004dc02f
gd89-04-15d2t09.flac:93f8a278e20aeda13d5b53a038152443
gd89-04-15d2t10.flac:1efcdaf2f76257dad54b6bd077745b32
flac-md5
2b164637e28e01cad0b8c0db7c2977f0 *gd89-04-15d1t01.flac
997b9bd066b1f602d7a321ca66c6c035 *gd89-04-15d1t02.flac
4e1cd28aac3b8e07adec0c48dea4c7f4 *gd89-04-15d1t03.flac
a5ac5fdd9f595716db3336ebde457a3b *gd89-04-15d1t04.flac
344d1a2330103609823437be22792677 *gd89-04-15d1t05.flac
7f3018c9ec0033a7e986078b8ba880c9 *gd89-04-15d1t06.flac
b403f14f04bbedb196dd06975e5fc0c2 *gd89-04-15d1t07.flac
39211a3a5d08923899c5276088a0544d *gd89-04-15d1t08.flac
cc710d3e82911b8d4e79cb258d0624a8 *gd89-04-15d1t09.flac
7bd2b34cf79d71aff66af4958d606ef0 *gd89-04-15d1t10.flac
12affd0bb3b79fcddaef509cb39dbb2c *gd89-04-15d1t11.flac
5a4a62f18c27936a3d8083cfb3ae78ec *gd89-04-15d2t01.flac
4ed7554ec8e24a724bf9854d87b5732d *gd89-04-15d2t02.flac
b8da0d53b16b2a16bcdbc8bbf444bcd9 *gd89-04-15d2t03.flac
e2964ab91566b61b371dcae9b9393d86 *gd89-04-15d2t04.flac
01b1747d087ae15c70722f4c5214c5a0 *gd89-04-15d2t05.flac
9a8687666500245b4e86df6f104966e5 *gd89-04-15d2t06.flac
b1bafd950cc19bbd4404f1d5ae413173 *gd89-04-15d2t07.flac
e120e64cad2ff8f8000cd1da55024e7b *gd89-04-15d2t08.flac
919b2cf70b695a732d1372bbdc398daa *gd89-04-15d2t09.flac
e82a548c3fbf1e012ef7b8ae7e7ca345 *gd89-04-15d2t10.flac

Comments
Add Comment
Other Sources (comments)
Matrix DSBD (Panasonic... (4) flac16; Source: Dan... (1) flac16; TAPER: Greg... (0) flac16: Recorded by... (0) flac24; Master... (0) flac16; Master... (0) flac16; Set One 2... (0) flac16; Source Info:... (0) flac16; Source Info:... (0)
Date User Comment