Browse Collections Artists Sources   Search Dates

Add Show    List Management    Help


Grateful Dead 11/01/90
Wembley Arena, London, England
Comments Add Comment    Source Collectors    Add to Collection    Add to Want List    History
Source # 82406 Other Sources
Entered by Matt Vernon
Checksums ffp , flac-md5
Disc Counts 2 / 2
Media Size
Date Circulated
Date Added
02/06/2007
02/07/2007
Source Summary flac16; AUD Source: Nakamichi CM-300's with CP-4 shotgun capsules > Sony TC-D5M > Maxell MX-90's, with no Dolby. Set up at rear of floor just behind the lighting board, mics on stand aprx seven feet high and aimed at stacks. Transfer: MAC > Sony TC-D5M (no Dolby) > Marantz CDR-500 > CDR > EAC > WAV > Soundforge > CD-Wave > TLH v.1.0.0.72 (for SBE-OK, FLAC compression, and checksums) > FLAC, February 2007. Taped and transferred by Andrew F 
  Archive
Source Information - Download Text | Download Zip
GRATEFUL DEAD
Wembley Arena
London England
11-01-1990

Disc One (79:34)

01 crowd & tuning
02 Hell in a Bucket
03 Friend of the Devil
04 Walkin' Blues
05 Cold Rain & Snow
06 Mama Tried >
07 Maggie's Farm
08 Cassidy
09 Stander on the Mountain
-- set break --
10 Victim or the Crime >
11 Touch of Grey
--encore --
12 crowd & tuning  
13 U.S. Blues

Disc Two (77:10)

01 crowd & tuning
02 Playin' in the Band >
03 Dark Star >
04 Drums >
05 Sp//ace >
06 Dark Star > Space >
07 Playin' in the Band Reprise >
08 almost SOTM >
09 Wharf Rat >
10 Throwing Stones >
11 Not Fade Away

AUD Source: Nakamichi CM-300's with CP-4 shotgun capsules > Sony TC-D5M > Maxell MX-90's, with no Dolby. Set up at rear of floor just behind the lighting board, mics on stand aprx seven feet high and aimed at stacks.

Transfer: MAC > Sony TC-D5M (no Dolby) > Marantz CDR-500 > CDR > EAC > WAV > Soundforge > CD-Wave > TLH v.1.0.0.72 (for SBE-OK, FLAC compression, and checksums) > FLAC, February 2007. Taped and transferred by Andrew F.

Notes: Unfortunately, I didn't have another aud to patch the tape flip
in Space, which is smack in the middle of Bruce's solo (at 2:30.310), so
I've mended it together. I've also tracked it for two discs, since I
prefer to hear the long jam all together, which results in the encore
getting stuck on the end of disc one. The break between d1t11 and d2t01
is seamless, so you can reassemble the tracks any way you want...*ENJOY*

shntool

    length     expanded size   cdr  WAVE problems filename
     0:44.64        7912172    ---   --   ---xx   gd1990-11-01d1t01.flac
     7:20.71       77783036    ---   --   ---xx   gd1990-11-01d1t02.flac
     8:46.52       92908748    ---   --   ---xx   gd1990-11-01d1t03.flac
     6:39.51       70503596    ---   --   ---xx   gd1990-11-01d1t04.flac
     8:20.60       88341164    ---   --   ---xx   gd1990-11-01d1t05.flac
     2:35.02       27346748    ---   --   ---xx   gd1990-11-01d1t06.flac
     7:14.52       76679948    ---   --   ---xx   gd1990-11-01d1t07.flac
     7:44.29       81917852    ---   --   ---xx   gd1990-11-01d1t08.flac
     7:07.48       75435740    ---   --   ---xx   gd1990-11-01d1t09.flac
     9:06.25       96373244    ---   --   ---xx   gd1990-11-01d1t10.flac
     7:09.05       75687404    ---   --   ---xx   gd1990-11-01d1t11.flac
     0:49.25        8702444    ---   --   ---xx   gd1990-11-01d1t12.flac
     5:54.59       62584412    ---   --   ---xx   gd1990-11-01d1t13.flac
     1:12.26       12761996    ---   --   ---xx   gd1990-11-01d2t01.flac
     8:16.46       87602636    ---   --   ---xx   gd1990-11-01d2t02.flac
    10:05.01      106724396    ---   --   ---xx   gd1990-11-01d2t03.flac
    12:19.57      130493708    ---   --   ---xx   gd1990-11-01d2t04.flac
     5:03.13       53479820    ---   --   ---xx   gd1990-11-01d2t05.flac
    10:50.66      114815276    ---   --   ---xx   gd1990-11-01d2t06.flac
     2:57.60       31363964    ---   --   ---xx   gd1990-11-01d2t07.flac
     0:46.55        8243804    ---   --   ---xx   gd1990-11-01d2t08.flac
     8:03.27       85264748    ---   --   ---xx   gd1990-11-01d2t09.flac
     9:53.72      104774588    ---   --   ---xx   gd1990-11-01d2t10.flac
     7:40.46       81252236    ---   --   ---xx   gd1990-11-01d2t11.flac
   156:44.37     1658953680 B                     (totals for 24 files, 0.6054 overall compression ratio)

There were no sector boundary errors.
Show Checksums
ffp
gd1990-11-01d1t01.flac:17918ba88c219f876e1fc96d7d482ccb
gd1990-11-01d1t02.flac:a61a4a5dadd0105663a8b7d9f3ef1d56
gd1990-11-01d1t03.flac:4330e19a1c3d33180d96f322458e894b
gd1990-11-01d1t04.flac:9261e61adaae5f7e2672d927e1602c06
gd1990-11-01d1t05.flac:e6601caa41be94661585bf8695e2ff16
gd1990-11-01d1t06.flac:7da5362e355e1a2cff0626810c565aec
gd1990-11-01d1t07.flac:2b1cbdefc9fa4df36868f98ad6af2bed
gd1990-11-01d1t08.flac:8bf3be68d4b7e4ccd2d16de46b608efd
gd1990-11-01d1t09.flac:d460081687ace9c3c30fe2b299138aa6
gd1990-11-01d1t10.flac:ff010ce46f693a6911397c35134315d4
gd1990-11-01d1t11.flac:eded013471d1f8b07f5a3b80c41bea4b
gd1990-11-01d1t12.flac:d8fa21a7cef1aeaeb03abc9dc946dd65
gd1990-11-01d1t13.flac:29d10825a32939628aebf2e3e5b9c22d
gd1990-11-01d2t01.flac:4be93b9db4b9838d01d83697762fe1f5
gd1990-11-01d2t02.flac:ce857cfdaf19fbe08eaa10df68e85551
gd1990-11-01d2t03.flac:01eb2831e942038bf75c509366cc6adb
gd1990-11-01d2t04.flac:da6aa8d0fe749f0e949441a76427be94
gd1990-11-01d2t05.flac:b7a8efc37f092bb25cca72f58e00dfc7
gd1990-11-01d2t06.flac:c6fe186fa6dfd00c87c6a9bf74bcacef
gd1990-11-01d2t07.flac:43ed7314436463bf07a48b9e733d3ff1
gd1990-11-01d2t08.flac:5b647af90e1a23eea1565942ad6f20bc
gd1990-11-01d2t09.flac:d9310bf0d6123518a33ae64e49565f74
gd1990-11-01d2t10.flac:98eac24cbdce2a10819e6da07ad4ac8c
gd1990-11-01d2t11.flac:35fcb379b99eed20a589dd34c0cd1259
flac-md5
2eceb8dfb68919e65c955278bf1a14a2 *gd1990-11-01d1t01.flac
4149e6bcdf46b9167e1d9aff9805d589 *gd1990-11-01d1t02.flac
5c089c51e2b5b23949d3492503d6a2dd *gd1990-11-01d1t03.flac
3e31628578a8303a5ca1230af168a6d2 *gd1990-11-01d1t04.flac
929a577be6292bd17c31f3caef44df77 *gd1990-11-01d1t05.flac
96b938665b3e663b32a1bf463cf483ac *gd1990-11-01d1t06.flac
452ad28e99cb0e1f7fe4041e7ad86878 *gd1990-11-01d1t07.flac
6d7f7909dc0c5854a0074aab659bc8c7 *gd1990-11-01d1t08.flac
893cc6abddf745540157d91641a5d6b8 *gd1990-11-01d1t09.flac
226cff473e50ed6cf3946d64d47b067c *gd1990-11-01d1t10.flac
f7bc9c0c09efa09481b992f4d6dd6932 *gd1990-11-01d1t11.flac
782845400280c52fad354674627c3d94 *gd1990-11-01d1t12.flac
696b566cfa08de0c18ae7617154c6121 *gd1990-11-01d1t13.flac
085af9b85ae4d6211bd4c3b3590beb17 *gd1990-11-01d2t01.flac
6e0b454512849a341396c4ffdf690af1 *gd1990-11-01d2t02.flac
e2721622f7b67f50dfea18f24f221f83 *gd1990-11-01d2t03.flac
2215a68208a43e0d672b99dd5d03f1f8 *gd1990-11-01d2t04.flac
f61556d24442b3a45d9dadab5cbf3649 *gd1990-11-01d2t05.flac
e4c8cd973988aefdf9a2d27e50163222 *gd1990-11-01d2t06.flac
21a1cc706dd6aa85076fee89f2b04177 *gd1990-11-01d2t07.flac
0cad7d039842f9a856976f5e8365d13d *gd1990-11-01d2t08.flac
fd54a6696503b3e1b69c7628f0cf3106 *gd1990-11-01d2t09.flac
16ca6a4ad2859128badd740e5fe3b8e3 *gd1990-11-01d2t10.flac
3d3b7d211e58dd8d312031e9ef1bcfea *gd1990-11-01d2t11.flac

Comments
Add Comment
Other Sources (comments)
Set 1= MDAT AUD> DAT> CDR>... (1) SBD > DAT > CDR > WAV >... (2) SBD > DAT > CDR > WAV > SHN... (0) flac16; Source: DAUD... (0) flac16; 2 Source... (0) flac16/48kHz; Mark... (0) flac16/48kHz;... (0)
Date User Comment