Browse Collections Artists Sources   Search Dates

Add Show    List Management    Help


Phish 07/04/99
Lakewood Amphitheater, Atlanta, GA
Comments Add Comment    Source Collectors    Add to Collection    Add to Want List    History
Source # 825 Other Sources
Entered by Terry Watts
Checksums SHN
Disc Counts 0 / 3
Media Size
Date Circulated
Date Added
7/9/99
11/18/2001
Source Summary AKG 480/ck63 > Dmic-20 > DA-P1 > Panasonic 7502-b > HD using RDACD > Soundforge XP4.5 > SHN; Taped by Dave Pecoraro and Matt Vallo; track breaks not on sector boundaries, but no clicks reported? 
Source Information - Download Text | Download Zip
Phish
July 4, 1999
Lakewood Ampitheater, Atlanta, GA

Tapers: Dave Pecararo and Matt V. (People for a Clearer Phish)
Source: AKG 480/ck63>dmic-20>dap1>Panasonic 7502-b>HD using RDACD>Soundforge XP4.5>Shorten

[Disc One]

Set I

1. My Soul (7:28)
2. Ya Mar (13:18)
3. Farmhouse (6:23)
4. The Oh Kee Pah Ceremony (1:53)
5. AC/DC Bag (9:57)
6. The Wedge (6:39)
7. Vultures (7:29)
8. I Didn't Know (5:18)
9. Fast Enough for You (7:30)

[Disco Two]

Set I cont.

1. David Bowie (16:55)

Set II

2. Ghost> (13:38)
3. Slave to the Traffic Light (11:49)
4. The Horse> (00:51)
5. Silent in the Morning (05:40)
6. What's the Use (7:40)

[Disc Three]

Set II continued...

1. Wilson (8:49)
2. Mike's Song> (9:25)
3. Sleeping Monkey> (5:13)
4. Weekapaug Groove (13:46)

Encore:

5. Carini (3:50)
6. Meatstick (9:49)

Encore2:

7. The Star Spangled Banner (2:19)

Seeded by Jon Lober ([email protected])

Show Checksums
SHN
d0871b609cfcd77e788a553895916f5c *ph99-07-04d1t01.shn
e13fc4788877377ccf7c59a85534cc63 *ph99-07-04d1t02.shn
8632556ee1958395bebb829a31e587a0 *ph99-07-04d1t03.shn
df8409d1148046af5bd8287831b58caa *ph99-07-04d1t04.shn
3749a5387c59e07f8835085ec2014868 *ph99-07-04d1t05.shn
c54e70416a726d31220c5dcd1fdc297e *ph99-07-04d1t06.shn
61e51de2f592c88aeadee33a89e55b20 *ph99-07-04d1t07.shn
bc15ef43d0c03c502eaeccc58c85b25a *ph99-07-04d1t08.shn
de832cad0bd7fd081dc519bd9a18936f *ph99-07-04d1t09.shn
4ab21efcfc977d41ebad9a116c122374 *ph99-07-04d2t01.shn
bb166b6999e1be7791d9b6ff6269d39e *ph99-07-04d2t02.shn
060f0ebd7dc64897640749fe1fab9cd8 *ph99-07-04d2t03.shn
a95afe553b199191e1988a8b2b344df1 *ph99-07-04d2t04.shn
0397566f30e12eb7057b40619a9624f5 *ph99-07-04d2t05.shn
bf4c874200c9c03f1e036f7036b230e2 *ph99-07-04d2t06.shn
0002e004d3fef194d57982974e9ed95b *ph99-07-04d3t01.shn
c39df5f3d96dd05b3c9ec1608a8f22ab *ph99-07-04d3t02.shn
a2da6aede28a051bb44e0ce3d6e23fd9 *ph99-07-04d3t03.shn
c4da3b2ba469c7079856ed47945ffcf4 *ph99-07-04d3t04.shn
4d948b7dfe5053ef428d2090ea960f58 *ph99-07-04d3t05.shn
a82bab9b2cf02b486930a75f89cc12d0 *ph99-07-04d3t06.shn
4501e1ca9e359a74071d004b951b6754 *ph99-07-04d3t07.shn


Comments
Add Comment
Other Sources (comments)
Neumann U89i... (0) Schoeps CMC6/mk4v > Lunatec... (0) Schoeps CMC6/mk41 > Apogee... (0) flac16; Schoeps... (1) flac16; AKG 483 >... (0) flac16; AKG... (0) flac16; Schoeps... (0) flac16 48kHz Audio... (0) flac16 44.1kHz Audio... (0)
Date User Comment
01/24/2005 Allen Chock full of errors...

length expanded size cdr WAVE problems filename
7:28.58 79163058 -b- he ---xx ph99-07-04d1t01.shn
13:18.61 140910042 -b- he ---xx ph99-07-04d1t02.shn
6:23.21 67611918 -b- he ---xx ph99-07-04d1t03.shn
1:53.49 20048582 --- he ---xx ph99-07-04d1t04.shn
9:57.09 105332102 --- he ---xx ph99-07-04d1t05.shn
6:39.14 70416662 --- he ---xx ph99-07-04d1t06.shn
7:29.36 79288406 --- he ---xx ph99-07-04d1t07.shn
5:18.35 56177828 -b- -e ---xx ph99-07-04d1t08.shn
7:30.03 79387350 -b- he ---xx ph99-07-04d1t09.shn
16:55.34 179127478 -b- he ---xx ph99-07-04d2t01.shn
13:38.48 144407446 -b- he ---xx ph99-07-04d2t02.shn
11:49.62 125213558 --- he ---xx ph99-07-04d2t03.shn
0:51.70 9161174 --- he ---xx ph99-07-04d2t04.shn
5:40.30 60046694 --- he ---xx ph99-07-04d2t05.shn
7:40.47 81254546 -b- he ---xx ph99-07-04d2t06.shn
8:49.28 93380762 -b- he ---xx ph99-07-04d3t01.shn
9:25.11 99692006 --- he ---xx ph99-07-04d3t02.shn
5:13.46 55320968 -b- -e ---xx ph99-07-04d3t03.shn
13:46.44 145810022 --- he ---xx ph99-07-04d3t04.shn
3:50.59 40710426 -b- he ---xx ph99-07-04d3t05.shn
9:49.15 103934702 -b- he ---xx ph99-07-04d3t06.shn
2:19.18 24562722 -b- he ---xx ph99-07-04d3t07.shn
175:49.47 1860958452 B (totals for 22 files, 0.5729 overall compression ratio)