Browse Collections Artists Sources   Search Dates

Add Show    List Management    Help


KVHW 12/01/99
Higher Ground, Winooski, VT
Comments Add Comment    Source Collectors    Add to Collection    Add to Want List    History
Source # 82506 Other Sources
Entered by
Checksums md5
Disc Counts 2 / 3
Media Size
Date Circulated
Date Added
02/01/2005
02/12/2007
Source Summary Unknown Mics > Dat > CD > EAC > mkw > Shn 
Source Information - Download Text | Download Zip
KVHW
12-01-99
Higher Ground - Winooski, VT

Source: Unknown mics>Dat>CD

*Dont let the lack of lineage fool you. This show sounds great, regardless*
*There were no Stage tapes present this night*

Set One:

d1t01 Its Up To You
d1t02 Five B4 Funk
d1t03 Samba?
d1t04 City Of Tiny Lights
d1t05 Footprints
d1t06 Rocco
d1t07 In Tme

Set Two:

d2t01 Spring Water
d2t02 Point Of No Return ->
d2t03 Poonk -> Cissy Strut -> Poonk
d3t01 Vermont Winter Song Improv ->
d3t02 Sea Blues
d3t03 A New Africa

Encore:

d3t04 Teeny Weeny Bit
d3t05 Slumber
d3t06 My Favorite Things


md5:

13f7a20b7d62a08a7a3f2551b8956872 *kvhw99-12-01d1t01.shn
e42831e611c0abf7c1fe3a6d3e620e0b *kvhw99-12-01d1t02.shn
4f185108db1b6cf9def38f8e1e9aadb3 *kvhw99-12-01d1t03.shn
e9283324d2db1d6e1f9506238598cc0f *kvhw99-12-01d1t04.shn
670deb14773dea7c71a76507ef9bac1d *kvhw99-12-01d1t05.shn
7ba6bd7206ce2b99198f8e266b4b7f97 *kvhw99-12-01d1t06.shn
166fd3adf5ca8da77bf9879c480f4cc7 *kvhw99-12-01d1t07.shn
a0fad90b73398499f3ee7ca501694f85 *kvhw99-12-01d2t01.shn
a989d5eb021f8645062ee13d00058117 *kvhw99-12-01d2t02.shn
e601e91f151d206e12f77c236bcdc3a5 *kvhw99-12-01d2t03.shn
7abe96084d4557c0894f78f268f9fed0 *kvhw99-12-01d3t01.shn
18900e02e700190ad0901db444709569 *kvhw99-12-01d3t02.shn
4a2643adde08731560ede2b7eb1f9ba1 *kvhw99-12-01d3t03.shn
e32b08918528df685f4990d8cd331639 *kvhw99-12-01d3t04.shn
4e078dac5a3aadecf98a85ada946d3ec *kvhw99-12-01d3t05.shn
41e3fdb5f014a8ffefee2216b6057f59 *kvhw99-12-01d3t06.shn

shntool:

    length     expanded size   cdr  WAVE problems filename
    10:26.38      110515820    ---   --   ---xx   kvhw99-12-01d1t01.shn
    13:01.00      137768444    ---   --   ---xx   kvhw99-12-01d1t02.shn
    10:29.38      111045020    ---   --   ---xx   kvhw99-12-01d1t03.shn
     7:25.38       78587420    ---   --   ---xx   kvhw99-12-01d1t04.shn
    13:16.00      140414444    ---   --   ---xx   kvhw99-12-01d1t05.shn
     6:00.00       63504044    ---   --   ---xx   kvhw99-12-01d1t06.shn
    11:58.73      126826940    ---   --   ---xx   kvhw99-12-01d1t07.shn
    17:19.38      183369020    ---   --   ---xx   kvhw99-12-01d2t01.shn
    24:41.00      261248444    ---   --   ---xx   kvhw99-12-01d2t02.shn
    11:30.73      121887740    ---   --   ---xx   kvhw99-12-01d2t03.shn
    15:02.00      159112844    ---   --   ---xx   kvhw99-12-01d3t01.shn
     7:43.72       81842588    ---   --   ---xx   kvhw99-12-01d3t02.shn
    14:31.38      153733820    ---   --   ---xx   kvhw99-12-01d3t03.shn
     8:34.00       90669644    ---   --   ---xx   kvhw99-12-01d3t04.shn
    13:15.38      140327420    ---   --   ---xx   kvhw99-12-01d3t05.shn
    12:30.36      132384716    ---   --   ---xx   kvhw99-12-01d3t06.shn
   197:46.32     2093238368 B                     (totals for 16 files, 0.5803 o
verall compression ratio)





Show Checksums
md5
13f7a20b7d62a08a7a3f2551b8956872 *kvhw99-12-01d1t01.shn
e42831e611c0abf7c1fe3a6d3e620e0b *kvhw99-12-01d1t02.shn
4f185108db1b6cf9def38f8e1e9aadb3 *kvhw99-12-01d1t03.shn
e9283324d2db1d6e1f9506238598cc0f *kvhw99-12-01d1t04.shn
670deb14773dea7c71a76507ef9bac1d *kvhw99-12-01d1t05.shn
7ba6bd7206ce2b99198f8e266b4b7f97 *kvhw99-12-01d1t06.shn
166fd3adf5ca8da77bf9879c480f4cc7 *kvhw99-12-01d1t07.shn
a0fad90b73398499f3ee7ca501694f85 *kvhw99-12-01d2t01.shn
a989d5eb021f8645062ee13d00058117 *kvhw99-12-01d2t02.shn
e601e91f151d206e12f77c236bcdc3a5 *kvhw99-12-01d2t03.shn
7abe96084d4557c0894f78f268f9fed0 *kvhw99-12-01d3t01.shn
18900e02e700190ad0901db444709569 *kvhw99-12-01d3t02.shn
4a2643adde08731560ede2b7eb1f9ba1 *kvhw99-12-01d3t03.shn
e32b08918528df685f4990d8cd331639 *kvhw99-12-01d3t04.shn
4e078dac5a3aadecf98a85ada946d3ec *kvhw99-12-01d3t05.shn
41e3fdb5f014a8ffefee2216b6057f59 *kvhw99-12-01d3t06.shn

Comments
Add Comment
Date User Comment