Browse Collections Artists Sources   Search Dates

Add Show    List Management    Help


Outformation 02/14/07
Stella Blue, Asheville, NC
Comments Add Comment    Source Collectors    Add to Collection    Add to Want List    History
Source # 82654 Other Sources
Entered by
Checksums ffp
Disc Counts 2 / 2
Media Size
Date Circulated
Date Added
02/15/2007
02/18/2007
Source Summary (FOB/Ceiling) Neumann KM140 (din) > Lunatec V3 > Nomad Jukebox 3 > firewire > nomad explorer > wavelab 5.01b > cd wave > Flac(6)
Taped and transferred by Gordon Wilson  
  Archive
Source Information - Download Text | Download Zip
Outformation
02/14/07
Stella Blue
Asheville, NC

source:   Neumann km-140 (din) > Lunatec V3 > Nomad Jukebox 3
location: fob,dfc, mics hung from the ceiling in the sweet spot
transfer: Nomad Jukebox 3 > firewire > nomad explorer > wavelab 5.01b > cd wave > flac level 6

taped and transferred by Gordon Wilson

set one/disc one:

1. Intro/tuning
2. Instrumental Jam >
3. Winds >
4. Start It Out Again
5. Carnac
6. Center Stage
7. Dark Severinsen
8. Can't Change The Past
9. Into My Arms
10. 'Bout My Money *

set two/disc two:

1. Sweet Louisiana
2. Traveler's Rest
3. Blue Ridge Mountain Sky
4. B of D
5. Tennessee Before Daylight
6. Edgewater
7. Cattle Drive >
8. Titles Of Movies Will Not Appear On Bill > Camper > Titles Of Movies Will Not Appear On Bill >
9. The Other One Jam >
10. Basically Frightened >
11. Titles Of Movies Will Not Appear On Bill

disc three:

Encore:
1. Crowd/tuning
2. Midnight Promises
3. West L.A. Fadeaway
4. Stone In My Shoe
5. SG

* Paul Augustino on keyboards

shntool output:
    length     expanded size   cdr  WAVE problems filename
     1:32.57       16362908    ---   --   ---xx   outformation2007-02-14d1t01.flac
     3:51.63       40896620    ---   --   ---xx   outformation2007-02-14d1t02.flac
     6:40.73       70731740    ---   --   ---xx   outformation2007-02-14d1t03.flac
    10:50.25      114718844    ---   --   ---xx   outformation2007-02-14d1t04.flac
     4:46.19       50495132    ---   --   ---xx   outformation2007-02-14d1t05.flac
    10:15.30      108556604    ---   --   ---xx   outformation2007-02-14d1t06.flac
     8:48.03       93146300    ---   --   ---xx   outformation2007-02-14d1t07.flac
     4:43.61       50064716    ---   --   ---xx   outformation2007-02-14d1t08.flac
     6:19.47       66966188    ---   --   ---xx   outformation2007-02-14d1t09.flac
    13:18.45      140873084    ---   --   ---xx   outformation2007-02-14d1t10.flac
     5:46.73       61206140    ---   --   ---xx   outformation2007-02-14d2t01.flac
     7:31.57       79690508    ---   --   ---xx   outformation2007-02-14d2t02.flac
    11:17.32      119498108    ---   --   ---xx   outformation2007-02-14d2t03.flac
     2:58.13       31429820    ---   --   ---xx   outformation2007-02-14d2t04.flac
     6:51.44       72603932    ---   --   ---xx   outformation2007-02-14d2t05.flac
     6:56.03       73389500    ---   --   ---xx   outformation2007-02-14d2t06.flac
     9:25.67       99823628    ---   --   ---xx   outformation2007-02-14d2t07.flac
     7:08.57       75633308    ---   --   ---xx   outformation2007-02-14d2t08.flac
     4:46.56       50582156    ---   --   ---xx   outformation2007-02-14d2t09.flac
     5:19.63       56419820    ---   --   ---xx   outformation2007-02-14d2t10.flac
     4:00.05       42347804    ---   --   ---xx   outformation2007-02-14d2t11.flac
     1:07.30       11889404    ---   --   ---xx   outformation2007-02-14d3t01.flac
     6:24.53       67862300    ---   --   ---xx   outformation2007-02-14d3t02.flac
     8:04.13       85408220    ---   --   ---xx   outformation2007-02-14d3t03.flac
    12:51.51      136124396    ---   --   ---xx   outformation2007-02-14d3t04.flac
     4:14.66       44960876    ---   --   ---xx   outformation2007-02-14d3t05.flac
   175:53.56        1775.44 MB                    (totals for 26 files, 0.5909 overall compression ratio)

ffp:
outformation2007-02-14d1t01.flac:d31ab4ad4867368d571c07509e12bbc4
outformation2007-02-14d1t02.flac:d86de1a60f9368cbfb96886816f636cd
outformation2007-02-14d1t03.flac:8475c990617966d484c967326e6b6040
outformation2007-02-14d1t04.flac:510f025d1887676b649fa961ca4e5477
outformation2007-02-14d1t05.flac:0056db378f6753043de95b139dd17936
outformation2007-02-14d1t06.flac:8e08dc4056959da663bdba6f8f574810
outformation2007-02-14d1t07.flac:62bef9f62c0ff0cc04793f2bab9ba654
outformation2007-02-14d1t08.flac:99f0ef340eda262206bad9f9296f3740
outformation2007-02-14d1t09.flac:788f4129e1058a3ecf5477ff0454cc36
outformation2007-02-14d1t10.flac:eccbcc3042f272b832dff6e487e225af
outformation2007-02-14d2t01.flac:8053b29c9fe7bb32f3b3c5468098049a
outformation2007-02-14d2t02.flac:e6d97978baf097a13dd3545231805e08
outformation2007-02-14d2t03.flac:f1adbdf6c9953d79d2318fcd6d74c42d
outformation2007-02-14d2t04.flac:1f4d47d6587e7c3f15521569391249bb
outformation2007-02-14d2t05.flac:4465c18a1069340e4e937b5217b6feae
outformation2007-02-14d2t06.flac:e06df3f3ca1bc7860931a27de56978fc
outformation2007-02-14d2t07.flac:f96f7348b0c3cc0dc4a4d5aff3e4e95c
outformation2007-02-14d2t08.flac:c703ea0fb3921fb71a1eb8fa37846c2a
outformation2007-02-14d2t09.flac:d1795245c8a436a4024b9f46d31c37e5
outformation2007-02-14d2t10.flac:2b71c0b758168b8c9d2d0e6ba2de9d83
outformation2007-02-14d2t11.flac:422dab419f27293af2ccf510ec2943cd
outformation2007-02-14d3t01.flac:0a643ab39e4ff794d0ebcf87b73e3434
outformation2007-02-14d3t02.flac:1b9d49fd5d823a10091fcd67caf51d83
outformation2007-02-14d3t03.flac:391fc358a049353c7983be793bb8f197
outformation2007-02-14d3t04.flac:4465cb2d64f5a2653968aaebcc17d607
outformation2007-02-14d3t05.flac:690a3c39925733e5cd75c780b143b6fe
Show Checksums
ffp
outformation2007-02-14d1t01.flac:d31ab4ad4867368d571c07509e12bbc4
outformation2007-02-14d1t02.flac:d86de1a60f9368cbfb96886816f636cd
outformation2007-02-14d1t03.flac:8475c990617966d484c967326e6b6040
outformation2007-02-14d1t04.flac:510f025d1887676b649fa961ca4e5477
outformation2007-02-14d1t05.flac:0056db378f6753043de95b139dd17936
outformation2007-02-14d1t06.flac:8e08dc4056959da663bdba6f8f574810
outformation2007-02-14d1t07.flac:62bef9f62c0ff0cc04793f2bab9ba654
outformation2007-02-14d1t08.flac:99f0ef340eda262206bad9f9296f3740
outformation2007-02-14d1t09.flac:788f4129e1058a3ecf5477ff0454cc36
outformation2007-02-14d1t10.flac:eccbcc3042f272b832dff6e487e225af
outformation2007-02-14d2t01.flac:8053b29c9fe7bb32f3b3c5468098049a
outformation2007-02-14d2t02.flac:e6d97978baf097a13dd3545231805e08
outformation2007-02-14d2t03.flac:f1adbdf6c9953d79d2318fcd6d74c42d
outformation2007-02-14d2t04.flac:1f4d47d6587e7c3f15521569391249bb
outformation2007-02-14d2t05.flac:4465c18a1069340e4e937b5217b6feae
outformation2007-02-14d2t06.flac:e06df3f3ca1bc7860931a27de56978fc
outformation2007-02-14d2t07.flac:f96f7348b0c3cc0dc4a4d5aff3e4e95c
outformation2007-02-14d2t08.flac:c703ea0fb3921fb71a1eb8fa37846c2a
outformation2007-02-14d2t09.flac:d1795245c8a436a4024b9f46d31c37e5
outformation2007-02-14d2t10.flac:2b71c0b758168b8c9d2d0e6ba2de9d83
outformation2007-02-14d2t11.flac:422dab419f27293af2ccf510ec2943cd
outformation2007-02-14d3t01.flac:0a643ab39e4ff794d0ebcf87b73e3434
outformation2007-02-14d3t02.flac:1b9d49fd5d823a10091fcd67caf51d83
outformation2007-02-14d3t03.flac:391fc358a049353c7983be793bb8f197
outformation2007-02-14d3t04.flac:4465cb2d64f5a2653968aaebcc17d607
outformation2007-02-14d3t05.flac:690a3c39925733e5cd75c780b143b6fe

Comments
Add Comment
Other Sources (comments)
SBD + (Stage) Schoeps... (0)
Date User Comment