Browse Collections Artists Sources   Search Dates

Add Show    List Management    Help


Grateful Dead 03/01/87
Henry J. Kaiser Convention Center, Oakland, CA
Comments Add Comment    Source Collectors    Add to Collection    Add to Want List    History
Source # 82667 Other Sources
Entered by Matt Vernon
Checksums flac-md5 , ffp
Disc Counts 2 / 3
Media Size
Date Circulated
Date Added
02/17/2007
02/18/2007
Source Summary flac16; Recording Info: SBD -> Cassette Master (Sony D5) Transfer Info: Cassette Master (Tascam 122mkII) -> Apogee MiniMe (24bit/48k) -> Samplitude Professional v8.01 -> FLAC/16 All Transfers and Mastering By Charlie Miller 
  Archive
Source Information - Download Text | Download Zip
Grateful Dead - March 1, 1987
Henry J. Kaiser Convention Center
Oakland, CA

Recording Info:
SBD -> Cassette Master (Sony D5)

Transfer Info:
Cassette Master (Tascam 122mkII) -> Apogee MiniMe (24bit/48k) ->
Samplitude Professional v8.01 -> FLAC/16
(3 Discs Audio / 2 Discs FLAC)

All Transfers and Mastering By Charlie Miller
[email protected]
February 7, 2007

Notes:
-- Set 2 is seamless
-- Two different SBD Cassette Masters were used to make this seamless
-- Thanks to Paul Scotton and Joani Walker for the tapes

Set 1:
d1t01 - Tuning
d1t02 - Touch Of Grey ->
d1t03 - Little Red Rooster
d1t04 - Peggy-O
d1t05 - Me And My Uncle ->
d1t06 - Mexicali Blues
d1t07 - When Push Comes To Shove
d1t08 - It's All Over Now
d1t09 - Row Jimmy ->
d1t10 - Let It Grow

Set 2:
d2t01 - Tuning
d2t02 - Hell In A Bucket
d2t03 - Scarlet Begonias ->
d2t04 - Fire On The Mountain
d2t05 - Samson And Delilah
d3t01 - Black Muddy River ->
d3t02 - He's Gone ->
d3t03 - Drums ->
d3t04 - Space ->
d3t05 - The Other One ->
d3t06 - Black Peter ->
d3t07 - Around And Around ->
d3t08 - Good Lovin'

Encore:
d3t09 - Don't Ease Me In


SHNTOOL OUTPUT:
    length     expanded size   cdr  WAVE problems filename
     0:42.48        7521740    ---   --   -----   gd87-03-01d1t01.wav
     7:03.74       74791292    ---   --   -----   gd87-03-01d1t02.wav
     9:19.07       98624108    ---   --   -----   gd87-03-01d1t03.wav
     8:14.56       87273356    ---   --   -----   gd87-03-01d1t04.wav
     3:03.67       32438828    ---   --   -----   gd87-03-01d1t05.wav
     4:38.65       49192124    ---   --   -----   gd87-03-01d1t06.wav
     6:51.40       72594524    ---   --   -----   gd87-03-01d1t07.wav
     8:18.22       87898988    ---   --   -----   gd87-03-01d1t08.wav
    10:01.20      106063484    ---   --   -----   gd87-03-01d1t09.wav
    11:06.45      117588284    ---   --   -----   gd87-03-01d1t10.wav
     1:30.44       15979532    ---   --   -----   gd87-03-01d2t01.wav
     5:55.14       62654972    ---   --   -----   gd87-03-01d2t02.wav
     8:46.17       92826428    ---   --   -----   gd87-03-01d2t03.wav
    13:11.43      139633580    ---   --   -----   gd87-03-01d2t04.wav
     6:28.21       68492636    ---   --   -----   gd87-03-01d2t05.wav
     6:45.66       71597276    ---   --   -----   gd87-03-01d3t01.wav
    12:17.02      130011548    ---   --   -----   gd87-03-01d3t02.wav
     8:20.35       88282364    ---   --   -----   gd87-03-01d3t03.wav
     5:47.46       61319036    ---   --   -----   gd87-03-01d3t04.wav
     5:36.45       59376284    ---   --   -----   gd87-03-01d3t05.wav
    12:41.55      134369804    ---   --   -----   gd87-03-01d3t06.wav
     4:17.20       45381884    ---   --   -----   gd87-03-01d3t07.wav
     8:26.59       89397212    ---   --   -----   gd87-03-01d3t08.wav
     3:22.54       35759852    ---   --   -----   gd87-03-01d3t09.wav
   172:48.65     1829069136 B                     (totals for 24 files)
Show Checksums
flac-md5
5734296b5ea6b7fcba75c33a80e71361 *gd87-03-01d1t01.flac
968702fe5663102315ca456598749864 *gd87-03-01d1t02.flac
1d2f1280db788328ec95272f954cffef *gd87-03-01d1t03.flac
29211b36a0500d9a2200d64ab07448ff *gd87-03-01d1t04.flac
b4fd3d8888936d602c3fd05a8cb959b3 *gd87-03-01d1t05.flac
1f5673865faf74bff3c7394c0de177fc *gd87-03-01d1t06.flac
c74b058737e5f2234e902160b810f1f8 *gd87-03-01d1t07.flac
3ade0466919a01f85bd72dfa6c1d389f *gd87-03-01d1t08.flac
664f6a7069112f26941a768a6e1cac76 *gd87-03-01d1t09.flac
51b6f1de488fe86ba1c14e3067fd0a3a *gd87-03-01d1t10.flac
e00a6007e84783216cc7869355d17d39 *gd87-03-01d2t01.flac
5651f761e0985b529ab8a3cd7c3a5257 *gd87-03-01d2t02.flac
3e94e786c56b10814c9a9af19f73ae8d *gd87-03-01d2t03.flac
ddb910a0ae3570002451b78b9500b74d *gd87-03-01d2t04.flac
0b2ce866804bdb8044bb33d61570bfe4 *gd87-03-01d2t05.flac
63be1bc4b953a7c38c5a8121b1461310 *gd87-03-01d3t01.flac
d6bca07080ff970a43670789a64925b4 *gd87-03-01d3t02.flac
9c3996e19c99a54d1a5bc58b327646f2 *gd87-03-01d3t03.flac
a75a42cc5efe5c86b754084e3a36dcda *gd87-03-01d3t04.flac
4fb36f8c039de5cfab7a4c7c8b2cd360 *gd87-03-01d3t05.flac
686b7a04a86bf8b80fcdcf8022385186 *gd87-03-01d3t06.flac
dd33c4006853a07a999f7e09a981105b *gd87-03-01d3t07.flac
986c22b432f8c3a65547d521d461f669 *gd87-03-01d3t08.flac
939e546ce105f5c2c88721b0d5c9cdf0 *gd87-03-01d3t09.flac
ffp
gd87-03-01d1t01.flac:f390a433b662f8deb24559a5aba64c88
gd87-03-01d1t02.flac:30ab71c56929365655be77c8d2d491b7
gd87-03-01d1t03.flac:3aa25b96bd279da3216cdfd64ee472f0
gd87-03-01d1t04.flac:a03d9fc33c35539514e06a065a577790
gd87-03-01d1t05.flac:dfa573f8174e2bfffed20d1d407c8a47
gd87-03-01d1t06.flac:28c1bb157777b404e191dcddf7ef2795
gd87-03-01d1t07.flac:000dfa7c59a50175ab324210053b5596
gd87-03-01d1t08.flac:9a338313c7b9af55532cd3c4655456ab
gd87-03-01d1t09.flac:182058f9cef6ef0e5ddc3b064d0151f3
gd87-03-01d1t10.flac:81013360e7945a30c2fbd3008c9c744d
gd87-03-01d2t01.flac:f2d43c97df0951db4f3d8c451514bb90
gd87-03-01d2t02.flac:05dfb098f4f0ccb52acbd97e6a004193
gd87-03-01d2t03.flac:73b2815d2f6773629b6fcacedca1c8f7
gd87-03-01d2t04.flac:a9e5a63a11b751843dbffbb177f00d79
gd87-03-01d2t05.flac:1e1b91e79a8c55ad2e45b4602c5cbd04
gd87-03-01d3t01.flac:f8b690dd4b85f0089ca85384c07f095c
gd87-03-01d3t02.flac:c08e678d23e5285426b0e49a1cf47734
gd87-03-01d3t03.flac:fe94f6acc8e56df5b635f0d01f46d86d
gd87-03-01d3t04.flac:d83757ae26912e37d872952e55e9e429
gd87-03-01d3t05.flac:d17bff057fec3f0edac8654beb569dbf
gd87-03-01d3t06.flac:ddfefe51f0382813ad5482bea6d603a1
gd87-03-01d3t07.flac:ad5946dc3422473cf086dee784698d77
gd87-03-01d3t08.flac:d3a3ce527d64c93d2dccfd7e6d93bdf0
gd87-03-01d3t09.flac:ecb5402c8ec1d640c808696e3b32cdb2

Comments
Add Comment
Other Sources (comments)
SBD>MC>DAT>SF>CDR; via Tom... (0) SBD > DAT > CDR > EAC > SHN... (2) Soundboard->Master... (0) flac24; AUD: Unknown... (0) flac16; AUD: Unknown... (0)
Date User Comment