Browse Collections Artists Sources   Search Dates

Add Show    List Management    Help


Grateful Dead 03/03/87
Henry J Kaiser Convention Center, Oakland, CA
Comments Add Comment    Source Collectors    Add to Collection    Add to Want List    History
Source # 82726 Other Sources
Entered by Matt Vernon
Checksums flac-md5 , ffp
Disc Counts 2 / 2
Media Size
Date Circulated
Date Added
02/18/2007
02/20/2007
Source Summary flac16; Recording Info: SBD -> Cassette Master (Sony D5); Transfer Info: Cassette Master (Tascam 122mkII) -> Apogee MiniMe (24bit/48k) -> Samplitude Professional v8.01 -> FLAC/16 
  Archive
Source Information - Download Text | Download Zip
Grateful Dead - March 3, 1987
Henry J. Kaiser Convention Center
Oakland, CA

Recording Info:
SBD -> Cassette Master (Sony D5)

Transfer Info:
Cassette Master (Tascam 122mkII) -> Apogee MiniMe (24bit/48k) ->
Samplitude Professional v8.01 -> FLAC/16
(2 Discs Audio / 2 Discs FLAC)

All Transfers and Mastering By Charlie Miller
[email protected]
February 7, 2007

Patch Info:
SBD/UltraMatrix Cassette Master supplies:
Drums (7:02 - 7:53)

Notes:
-- Disc change is seamless
-- Mardi Gras Parade with the Neville Brothers during Iko
-- Thanks to Paul Scotton and Joani Walker for the tapes

Set 1:
d1t01 - Tuning
d1t02 - The Mighty Quinn (Quinn The Eskimo)
d1t03 - Greatest Story Ever Told
d1t04 - Loser
d1t05 - New Minglewood Blues
d1t06 - Tons Of Steel
d1t07 - Cassidy
d1t08 - Mississippi Half-Step Uptown Toodeloo ->
d1t09 - The Promised Land

Set 2:
d1t10 - Iko Iko
d1t11 - Saint Of Circumstance
d2t01 - Terrapin Station ->
d2t02 - Drums ->
d2t03 - Space ->
d2t04 - Gimme Some Lovin' ->
d2t05 - Wharf Rat ->
d2t06 - Throwing Stones ->
d2t07 - Touch Of Grey

Encore:
d2t08 - Brokedown Palace


SHNTOOL OUTPUT:
    length     expanded size   cdr  WAVE problems filename
     1:20.43       14213180    ---   --   -----   gd87-03-03d1t01.wav
     4:36.13       48717020    ---   --   -----   gd87-03-03d1t02.wav
     5:03.24       53505692    ---   --   -----   gd87-03-03d1t03.wav
     8:00.19       84716732    ---   --   -----   gd87-03-03d1t04.wav
     9:31.06      100738556    ---   --   -----   gd87-03-03d1t05.wav
     6:49.39       72239372    ---   --   -----   gd87-03-03d1t06.wav
     6:24.58       67874060    ---   --   -----   gd87-03-03d1t07.wav
     9:15.37       97989068    ---   --   -----   gd87-03-03d1t08.wav
     4:22.06       46230956    ---   --   -----   gd87-03-03d1t09.wav
    11:12.25      118599644    ---   --   -----   gd87-03-03d1t10.wav
     7:13.25       76440044    ---   --   -----   gd87-03-03d1t11.wav
    13:08.22      139054988    ---   --   -----   gd87-03-03d2t01.wav
     7:58.05       84331004    ---   --   -----   gd87-03-03d2t02.wav
     6:54.44       73133132    ---   --   -----   gd87-03-03d2t03.wav
     5:07.32       54230108    ---   --   -----   gd87-03-03d2t04.wav
     9:09.22       96895388    ---   --   -----   gd87-03-03d2t05.wav
     8:44.19       92478332    ---   --   -----   gd87-03-03d2t06.wav
     5:53.61       62412716    ---   --   -----   gd87-03-03d2t07.wav
     5:34.68       59077580    ---   --   -----   gd87-03-03d2t08.wav
   136:19.43     1442877572 B                     (totals for 19 files)
Show Checksums
flac-md5
11aff8fb8f68bd55c5be014db6dd1f4f *gd87-03-03d1t01.flac
6c618b320fa168a345f5d9a2aa8c3a14 *gd87-03-03d1t02.flac
02b23a9cf18e92be3ce89392c6abb9cd *gd87-03-03d1t03.flac
eff46a0ce1b6b6de4c6b765d0e2ceaad *gd87-03-03d1t04.flac
bf43f4a35b0404fe246724618aebe011 *gd87-03-03d1t05.flac
b55174bca1ca92f24d22488b15c68edd *gd87-03-03d1t06.flac
b3628786e43a0d892bd84a0955eb5739 *gd87-03-03d1t07.flac
f1c5a01431ce0e3c8826f927a420a04c *gd87-03-03d1t08.flac
f8ae7935670ec78b53d97410e4a9101d *gd87-03-03d1t09.flac
e1e6a5921a4e6f3d893042543526f10b *gd87-03-03d1t10.flac
a9837497883771611e0c0c0cba16a3c6 *gd87-03-03d1t11.flac
f397c05aaf5e0a9c7a4a03168efa43f5 *gd87-03-03d2t01.flac
ee17382c4a4d3743fcdd653b39d8bb23 *gd87-03-03d2t02.flac
1200744543be43c930a2dc9dce32235a *gd87-03-03d2t03.flac
65e2479c849963350e4c178f361725f1 *gd87-03-03d2t04.flac
13d0baec2f0e3ff9c90b43c4abbfd5d8 *gd87-03-03d2t05.flac
095596d03fb01db0883e6d902272d9ce *gd87-03-03d2t06.flac
43adb9d2c9e9c705a76e427646fed556 *gd87-03-03d2t07.flac
5d2c5bc3df800e713fc87812f588e601 *gd87-03-03d2t08.flac
ffp
gd87-03-03d1t01.flac:8fee879eaac529eec26b4a9ad7aa869a
gd87-03-03d1t02.flac:50b42306fbacc67fe8884e8a67eb674d
gd87-03-03d1t03.flac:0f292b74174cadf30f7de0bdf3673580
gd87-03-03d1t04.flac:2940c1d335d10d5a62e61a4232c759d8
gd87-03-03d1t05.flac:2aca63b221ad830a834736f3d6163b84
gd87-03-03d1t06.flac:5eff852e64bb730fe7a5d49cef7bd3cd
gd87-03-03d1t07.flac:a0940726387aa1ce8b9edbb6a5f67886
gd87-03-03d1t08.flac:5b3a78478e6b3284f1139a4cd41ee560
gd87-03-03d1t09.flac:0e860bea9021a4e6f2904b51ce7b6f7a
gd87-03-03d1t10.flac:3203ec04213d664c876c16635ff721b6
gd87-03-03d1t11.flac:6947b5e1a462adb1a65ccbb98071cc63
gd87-03-03d2t01.flac:0b3d3eacd3f306c2b022426fbe12a950
gd87-03-03d2t02.flac:a2be42519af4a65f8a40b65a477a4c95
gd87-03-03d2t03.flac:e60f07bb8cf98c94750c6f69c5a3756a
gd87-03-03d2t04.flac:ab64c7b644b4734592fbf66ecacfd692
gd87-03-03d2t05.flac:c0c63bf4483aa4d62c8d0f6e73113044
gd87-03-03d2t06.flac:9a211ee3603aeb56b6ddcc6d41562f0a
gd87-03-03d2t07.flac:91522f69aebd77309b120513af4a0d8f
gd87-03-03d2t08.flac:8849b5f4170e75aab69dd12288a95013

Comments
Add Comment
Other Sources (comments)
SBD > MC > DAT > CDR; via... (0) flac16; Recording... (0) flac24; AUD: Unknown... (0) flac16; AUD: Unknown... (0) flac16; Matrix 2... (0) DTS-Audio-CD 5.1... (0) flac16/48kHz; 5.1... (0)
Date User Comment