Browse Collections Artists Sources   Search Dates

Add Show    List Management    Help


Grateful Dead 03/02/87
Henry J Kaiser Convention Center, Oakland, CA
Comments Add Comment    Source Collectors    Add to Collection    Add to Want List    History
Source # 82728 Other Sources
Entered by Matt Vernon
Checksums flac-md5 , ffp
Disc Counts 2 / 2
Media Size
Date Circulated
Date Added
02/18/2007
02/20/2007
Source Summary flac16; Recording Info: SBD -> Cassette Master (Sony D5); Transfer Info: Cassette Master (Tascam 122mkII) -> Apogee MiniMe (24bit/48k) -> Samplitude Professional v8.01 -> FLAC/16 
  Archive
Source Information - Download Text | Download Zip
Grateful Dead - March 2, 1987
Henry J. Kaiser Convention Center
Oakland, CA

Recording Info:
SBD -> Cassette Master (Sony D5)

Transfer Info:
Cassette Master (Tascam 122mkII) -> Apogee MiniMe (24bit/48k) ->
Samplitude Professional v8.01 -> FLAC/16
(2 Discs Audio / 2 Discs FLAC)

All Transfers and Mastering By Charlie Miller
[email protected]
February 7, 2007

Notes:
-- Disc change is seamless
-- Tape flip towards end of Eyes Of The World
-- Thanks to Paul Scotton and Joani Walker for the tapes

Set 1:
d1t01 - Funiculi Funicula
d1t02 - Jack Straw
d1t03 - Althea
d1t04 - C C Rider
d1t05 - Bird Song
d1t06 - Beat It On Down The Line
d1t07 - Ramble On Rose
d1t08 - Feel Like A Stranger

Set 2:
d1t09 - China Cat Sunflower ->
d1t10 - I Know You Rider ->
d1t11 - Man Smart (Woman Smarter)
d2t01 - Ship Of Fools
d2t02 - Estimated Prophet ->
d2t03 - Eyes Of The World ->
d2t04 - Drums ->
d2t05 - Space ->
d2t06 - Truckin' ->
d2t07 - Morning Dew

Encore:
d2t08 - Johnny B. Goode


SHNTOOL OUTPUT:
    length     expanded size   cdr  WAVE problems filename
     3:13.25       34104044    ---   --   -----   gd87-03-02d1t01.wav
     4:59.49       52858892    ---   --   -----   gd87-03-02d1t02.wav
     8:14.67       87299228    ---   --   -----   gd87-03-02d1t03.wav
     8:06.24       85786892    ---   --   -----   gd87-03-02d1t04.wav
    13:04.43      138398780    ---   --   -----   gd87-03-02d1t05.wav
     3:20.37       35367068    ---   --   -----   gd87-03-02d1t06.wav
     7:41.19       81365132    ---   --   -----   gd87-03-02d1t07.wav
     9:11.21       97245836    ---   --   -----   gd87-03-02d1t08.wav
     6:01.16       63718076    ---   --   -----   gd87-03-02d1t09.wav
     5:42.59       60467612    ---   --   -----   gd87-03-02d1t10.wav
     6:27.01       68269196    ---   --   -----   gd87-03-02d1t11.wav
     9:34.72      101422988    ---   --   -----   gd87-03-02d2t01.wav
    10:58.43      116172380    ---   --   -----   gd87-03-02d2t02.wav
     9:51.12      104280668    ---   --   -----   gd87-03-02d2t03.wav
    10:13.27      108196748    ---   --   -----   gd87-03-02d2t04.wav
     7:04.44       74897132    ---   --   -----   gd87-03-02d2t05.wav
     6:34.40       69595724    ---   --   -----   gd87-03-02d2t06.wav
    11:00.70      116588684    ---   --   -----   gd87-03-02d2t07.wav
     4:08.04       43756652    ---   --   -----   gd87-03-02d2t08.wav
   145:28.73     1539791732 B                     (totals for 19 files)
Show Checksums
flac-md5
6d11fd1f0fabc15df6007b34b19b2023 *gd87-03-02d1t01.flac
afd1722bf54ad69396a80a1db3294b27 *gd87-03-02d1t02.flac
62a3fc95c9e9180c89a5c93ca08037c9 *gd87-03-02d1t03.flac
d6f6d8160d2827bbdb0c13d4076f2bee *gd87-03-02d1t04.flac
500f2de1d292674391f9023507c2742d *gd87-03-02d1t05.flac
229cf32ae3045f5efae4b79425e2ce79 *gd87-03-02d1t06.flac
cab3a30638e611c8f1968f6262134730 *gd87-03-02d1t07.flac
25e4101970f653ae5fc69ec86d458527 *gd87-03-02d1t08.flac
bfe3309a6868275f29ab3cbc1b3a2871 *gd87-03-02d1t09.flac
3ded1d65cda0b125105d90f6806b5db7 *gd87-03-02d1t10.flac
6b7943916a9038261a7a67436b040bc4 *gd87-03-02d1t11.flac
c6803b85004c8b6b41d364fe52f30806 *gd87-03-02d2t01.flac
2376f96e0d6e98fa520f2344023286fd *gd87-03-02d2t02.flac
4d15830b0c73ea1ea38f89b502fb57c8 *gd87-03-02d2t03.flac
6511c1ab2059a71b2a7c92252a3f1f39 *gd87-03-02d2t04.flac
e70da319a53df679a92258ec10008df8 *gd87-03-02d2t05.flac
2aea879c206e78c8b6ae9af40caef9fe *gd87-03-02d2t06.flac
d5fba22a6e0fd27fa3001172bb4500e9 *gd87-03-02d2t07.flac
3b39bb50c2df0eb7d746cf27205a28a0 *gd87-03-02d2t08.flac
ffp
gd87-03-02d1t01.flac:77e23924c89630d51ea09bfbaf99edb2
gd87-03-02d1t02.flac:4ca4e3d091266ca2a1a6fef24cd3cb30
gd87-03-02d1t03.flac:ac12f6be1a1288d482259c9f40b877cf
gd87-03-02d1t04.flac:626e0c90894eac78eb3575b4f953b3d1
gd87-03-02d1t05.flac:42088fe12b78343313b958c58ea506ea
gd87-03-02d1t06.flac:308663d7f0a15f46bd20aa63cca310b1
gd87-03-02d1t07.flac:b904aef08fc47b065a665b5cd2d02560
gd87-03-02d1t08.flac:66c800c22b36caf4dbbc20fa5dc927e0
gd87-03-02d1t09.flac:a8cff3d0fbda545c679b79c8116b1919
gd87-03-02d1t10.flac:6e4395765ccec736f27aa1257e955d51
gd87-03-02d1t11.flac:04bf96e2012ca9b9d60a0e6bfe52970e
gd87-03-02d2t01.flac:559b0548693569e6c9d2697c74016f9c
gd87-03-02d2t02.flac:13079a4d455fd9ef03c269890fec1ec0
gd87-03-02d2t03.flac:d06dc1e42b4e6c910e0142a39d6b610d
gd87-03-02d2t04.flac:10f72568b4f1d65909e668eacab38bfb
gd87-03-02d2t05.flac:f3491775617f25ad7f86ac428ec5a41d
gd87-03-02d2t06.flac:2ee1e967108e1c10cc8fb0a84bfea133
gd87-03-02d2t07.flac:ed55e8521b7cc02addcdfef6b2aa4263
gd87-03-02d2t08.flac:6cba86c58b01403743245d3baaf22f7e

Comments
Add Comment
Other Sources (comments)
SBD; conversion by Mike... (2) flac16; Recording... (0) flac24; AUD: Unknown... (0) flac16; AUD: Unknown... (0)
Date User Comment