Browse Collections Artists Sources   Search Dates

Add Show    List Management    Help


Grateful Dead 03/02/87
Henry J Kaiser Convention Center, Oakland, CA
Comments Add Comment    Source Collectors    Add to Collection    Add to Want List    History
Source # 82729 Other Sources
Entered by Matt Vernon
Checksums flac-md5 , ffp
Disc Counts 2 / 2
Media Size
Date Circulated
Date Added
02/18/2007
02/20/2007
Source Summary flac16; Recording Info: SBD -> Cassette Master (Sony D5); Transfer Info: Cassette Master (Tascam 122mkII) -> Apogee MiniMe (24bit/48k) -> Samplitude Professional v8.01 -> FLAC/16 This is a Matrix SBD, the straight SBD also circulates 
  Archive
Source Information - Download Text | Download Zip
Grateful Dead - March 2, 1987
Henry J. Kaiser Convention Center
Oakland, CA

Recording Info:
SBD -> Cassette Master (Sony D5)

Transfer Info:
Cassette Master (Tascam 122mkII) -> Apogee MiniMe (24bit/48k) ->
Samplitude Professional v8.01 -> FLAC/16
(2 Discs Audio / 2 Discs FLAC)

All Transfers and Mastering By Charlie Miller
[email protected]
February 7, 2007

Notes:
-- Disc change is seamless
-- This is a Matrix SBD, the straight SBD also circulates
-- Tape flip towards end of Eyes Of The World
-- Thanks to Paul Scotton and Joani Walker for the tapes

Set 1:
d1t01 - Funiculi Funicula
d1t02 - Jack Straw
d1t03 - Althea
d1t04 - C C Rider
d1t05 - Bird Song
d1t06 - Beat It On Down The Line
d1t07 - Ramble On Rose
d1t08 - Feel Like A Stranger

Set 2:
d1t09 - China Cat Sunflower ->
d1t10 - I Know You Rider ->
d1t11 - Man Smart (Woman Smarter)
d2t01 - Ship Of Fools
d2t02 - Estimated Prophet ->
d2t03 - Eyes Of The World ->
d2t04 - Drums ->
d2t05 - Space ->
d2t06 - Truckin' ->
d2t07 - Morning Dew

Encore:
d2t08 - Johnny B. Goode


SHNTOOL OUTPUT:
    length     expanded size   cdr  WAVE problems filename
     3:17.03       34757900    ---   --   -----   gd87-03-02d1t01.wav
     4:58.24       52623692    ---   --   -----   gd87-03-02d1t02.wav
     8:12.51       86908796    ---   --   -----   gd87-03-02d1t03.wav
     8:09.18       86301980    ---   --   -----   gd87-03-02d1t04.wav
    13:14.05      140073404    ---   --   -----   gd87-03-02d1t05.wav
     3:19.60       35244764    ---   --   -----   gd87-03-02d1t06.wav
     7:39.57       81101708    ---   --   -----   gd87-03-02d1t07.wav
     9:19.57       98741708    ---   --   -----   gd87-03-02d1t08.wav
     5:59.11       63353516    ---   --   -----   gd87-03-02d1t09.wav
     5:50.45       61845884    ---   --   -----   gd87-03-02d1t10.wav
     6:28.46       68551436    ---   --   -----   gd87-03-02d1t11.wav
     9:27.51      100138796    ---   --   -----   gd87-03-02d2t01.wav
    10:53.74      115363292    ---   --   -----   gd87-03-02d2t02.wav
    10:19.64      109342172    ---   --   -----   gd87-03-02d2t03.wav
     9:32.60      101041964    ---   --   -----   gd87-03-02d2t04.wav
     7:38.59       80930012    ---   --   -----   gd87-03-02d2t05.wav
     6:32.01       69151196    ---   --   -----   gd87-03-02d2t06.wav
    11:35.23      122652140    ---   --   -----   gd87-03-02d2t07.wav
     4:06.18       43436780    ---   --   -----   gd87-03-02d2t08.wav
   146:35.52     1551561140 B                     (totals for 19 files)
Show Checksums
flac-md5
351873fddd70f2c5856424e193afceb4 *gd87-03-02d1t01.flac
12b4f71f5cc3dd5afd62a83b27d5b81c *gd87-03-02d1t02.flac
b1fda2312f0aa1b037d5d18cf793f899 *gd87-03-02d1t03.flac
45774acd9edb9e396e14b91bc76fdf38 *gd87-03-02d1t04.flac
bb12e0ed9fb11572bf072eaa2cfa328d *gd87-03-02d1t05.flac
47973a6d85a60ce7f76898e2458d862b *gd87-03-02d1t06.flac
19e84d1ac081a062955892662704f3e7 *gd87-03-02d1t07.flac
d837499ea0033d3bae60227fdbd2e744 *gd87-03-02d1t08.flac
b2876fa27b4bb08c1ea5613070fffaa8 *gd87-03-02d1t09.flac
efddc6956404f6d2326bcf6115aaebeb *gd87-03-02d1t10.flac
65f9d004809e4291f6802eb62d782611 *gd87-03-02d1t11.flac
2daa07a6e30d345b4622a11e1b9ff58d *gd87-03-02d2t01.flac
aad15ddc3f09023063b153faa3a48562 *gd87-03-02d2t02.flac
dffd14657b33aa4b8fc7305a4c6d31be *gd87-03-02d2t03.flac
f3c17578d2cb3042f605e4c6c4c15c55 *gd87-03-02d2t04.flac
c21f1fbc057cd3b4f278dc83d0d2fa65 *gd87-03-02d2t05.flac
31d64b29d195c405c6869c18a0f1e249 *gd87-03-02d2t06.flac
aa22df928f0dd37949ef8511b497ca1d *gd87-03-02d2t07.flac
5f8dc1e3dde39197b1b959b326303fbe *gd87-03-02d2t08.flac
ffp
gd87-03-02d1t01.flac:eac7f9d999d9ddc2a4e9807c5a9b1aaf
gd87-03-02d1t02.flac:bffd9de541850b30d6e0fde1e3d699b1
gd87-03-02d1t03.flac:8878054b9a3dbfbc21d313f63dad2033
gd87-03-02d1t04.flac:34321af2e547cf9b85d8dff90dae8e13
gd87-03-02d1t05.flac:880a4bc55e4dcf72d9904d8c50d12642
gd87-03-02d1t06.flac:0bd90aab62793f69f9320a3ae0c18b4e
gd87-03-02d1t07.flac:74d8eb45e55413c26ab61c4927b2a966
gd87-03-02d1t08.flac:b041d9f1b958039308de89f2bd1aaac4
gd87-03-02d1t09.flac:63f9a79b420b262da5e48ba9ceb39c48
gd87-03-02d1t10.flac:af9a1bf4d5bb20805d7be9175d390b85
gd87-03-02d1t11.flac:67d5ddea6b61404f05c9ed0ce0e5f0fe
gd87-03-02d2t01.flac:d0d86b76955a2a562a3ca70f06783fd7
gd87-03-02d2t02.flac:d1fb7a205098515c168fad794ca81fa7
gd87-03-02d2t03.flac:4bf5bb562af7bf98b80ba459d1a53f49
gd87-03-02d2t04.flac:b708b27e74959b4f76d78482c04787cb
gd87-03-02d2t05.flac:f79f18adbc082f462d5df1d9e1312c40
gd87-03-02d2t06.flac:ccd1a529ac10b25ce4db543da8577c85
gd87-03-02d2t07.flac:ec991ea306b7fbfc70676d33a36f5b90
gd87-03-02d2t08.flac:bf79bca0a7fd8ffe4843dbe15cc7e56f

Comments
Add Comment
Other Sources (comments)
SBD; conversion by Mike... (2) flac16; Recording... (0) flac24; AUD: Unknown... (0) flac16; AUD: Unknown... (0)
Date User Comment