Browse Collections Artists Sources   Search Dates

Add Show    List Management    Help


Bob Weir 09/21/86
The Stone, San Francisco, CA
Comments Add Comment    Source Collectors    Add to Collection    Add to Want List    History
Source # 82818 Other Sources
Entered by Todd
Checksums ffp , md5
Disc Counts 2 / 2
Media Size
Date Circulated
Date Added
02/14/2007
02/23/2007
Source Summary Nightfood
SBD > Cm > ? > CD > EAC > Flac
See discs provided by Tinydancer, Conversion by biodtl 
Source Information - Download Text | Download Zip
Nightfood
09/21/86
The Stone, San Francisco, CA

SBD > Cm > ? > CD > EAC > Flac

Seed discs provided by Tiny Dancer 02/12/2007
EAC>Flac by biodtl 02/14/2007

Set I

d1t01 Jazz Street (aka Blackout)
d1t02 Verbal Abuse
d1t03 Polly Wanna Rhythm
d1t04 Reach Up For the Sky
d1t05 Five Long Years
d1t06 Miles' Mode*
d1t07 CIA*
d1t08 Midnight Cruise*
d1t09 Too Many Drivers*
d1t10 Turn On Your Lovelight*
d1t11 Twist and Shout**
d1t12 Willie and the Hand Jive**

Set II

d2t01 This Time Forever>Shade of Grey**
d2t02 Heaven Help the Fool**
d2t03 Festival**
d2t04 Donna Lee**
d2t05 Midnight Hour**
d2t06 Born In Chicago**
d2t07 Mercy, Mercy, Mercy**
d2t08 CC Rider**
d2t09 Misty**
d2t10 Twilight Time**
d2t11 Bass solo**
d2t12 Purple Haze (instrumental)**
d2t13 (Man Smart) Woman Smarter**

Notes:
* w/Jaco Pastorius
** w/Jaco and Bob Weir
Level adjustments occur during d1t01
No editing of any kind was performed on these files. Perhaps someone can take the time down the road to clean this up a little bit and smooth out the rough patches.

Nightfood  is :

Brian Melvin: drums
Curtis Ohlsson - bass (until JP joins)
Little John Chrisley - harmonica, vocals (on blues tunes)
Jaco Pastorius - bass (from "Miles' Mode" on)
Bob Weir - guitar, vocals (from "Twist & Shout" on)
Jon Davis - keyboards
Paul Mousavizadeh - guitar
Rick Smith - saxophone
Rosie Gaines - vocals

Shntool:

    length     expanded size   cdr  WAVE problems filename
     7:09.09       75696812    ---   --   -----   nightfood1986-09-21d1t01.wav
     7:21.50       77910044    ---   --   -----   nightfood1986-09-21d1t02.wav
     8:46.46       92894636    ---   --   -----   nightfood1986-09-21d1t03.wav
     4:40.12       49420268    ---   --   -----   nightfood1986-09-21d1t04.wav
    10:55.23      115596140    ---   --   -----   nightfood1986-09-21d1t05.wav
    10:07.22      107126588    ---   --   -----   nightfood1986-09-21d1t06.wav
     4:31.19       47849132    ---   --   -----   nightfood1986-09-21d1t07.wav
     3:59.44       42263132    ---   --   -----   nightfood1986-09-21d1t08.wav
     6:32.26       69209996    ---   --   -----   nightfood1986-09-21d1t09.wav
     5:25.67       57487628    ---   --   -----   nightfood1986-09-21d1t10.wav
     4:32.65       48133724    ---   --   -----   nightfood1986-09-21d1t11.wav
     5:55.04       62631452    ---   --   -----   nightfood1986-09-21d1t12.wav
     8:30.31       90036956    ---   --   -----   nightfood1986-09-21d2t01.wav
     6:00.33       63581660    ---   --   -----   nightfood1986-09-21d2t02.wav
    12:17.45      130112684    ---   --   -----   nightfood1986-09-21d2t03.wav
     1:42.27       18056348    ---   --   -----   nightfood1986-09-21d2t04.wav
     4:24.44       46673132    ---   --   -----   nightfood1986-09-21d2t05.wav
     8:49.16       93353276    ---   --   -----   nightfood1986-09-21d2t06.wav
     5:13.56       55344956    ---   --   -----   nightfood1986-09-21d2t07.wav
     8:23.08       88748060    ---   --   -----   nightfood1986-09-21d2t08.wav
     5:17.07       55935308    ---   --   -----   nightfood1986-09-21d2t09.wav
     3:12.66       34024076    ---   --   -----   nightfood1986-09-21d2t10.wav
     3:30.72       37213388    ---   --   -----   nightfood1986-09-21d2t11.wav
     5:48.67       61544828    ---   --   -----   nightfood1986-09-21d2t12.wav
     6:45.65       71594924    ---   --   -----   nightfood1986-09-21d2t13.wav
   159:54.24     1692439148 B                     (totals for 25 files, 1.0000 overall compression ratio)

Show Checksums
ffp
nightfood1986-09-21d1t01.flac:6eb7e6b0420a31bf574ad5cdc6138a64
nightfood1986-09-21d1t02.flac:e0158464c24d1460bfc7c5dd234ffdf7
nightfood1986-09-21d1t03.flac:61b068b6562f3ac6fa0e855bcc4eae28
nightfood1986-09-21d1t04.flac:223ff5eb3e836fd8ad8169a16f90738c
nightfood1986-09-21d1t05.flac:9d4d030fdfd59623680b983cba541003
nightfood1986-09-21d1t06.flac:a948b01ab0810ee34168cf9a7a629daa
nightfood1986-09-21d1t07.flac:e6770ec35c534eec126a29a1e65a9483
nightfood1986-09-21d1t08.flac:0334bbfeca7049f7f6b076c7939e46a8
nightfood1986-09-21d1t09.flac:e72a8efaa36e8722aab08914fc6f88e8
nightfood1986-09-21d1t10.flac:c63b6dca25cdb881812b842bfe8b0ef8
nightfood1986-09-21d1t11.flac:6292ff41e3156d76b0f1b0a77b779a59
nightfood1986-09-21d1t12.flac:98542167b1dd2374563ad8435e27296a
nightfood1986-09-21d2t01.flac:83f1794ebf37506956b904f70ae14473
nightfood1986-09-21d2t02.flac:2b77e9fc979a60d2d2a7a9e6700af8bd
nightfood1986-09-21d2t03.flac:6abea27f11dffa5a48d45c165a864847
nightfood1986-09-21d2t04.flac:be33c49f503da66ea9b4c0657f5e2db2
nightfood1986-09-21d2t05.flac:663a9eac847ba80ba3e032e1441d4a66
nightfood1986-09-21d2t06.flac:8dff668bdbc43dcb86329a9c019fd000
nightfood1986-09-21d2t07.flac:75131882a70ac79cf6fd6c548c6d36a9
nightfood1986-09-21d2t08.flac:77df711777479af1db4934d4f40c826f
nightfood1986-09-21d2t09.flac:cede2a8aaf722b3bad43ecef4b92c547
nightfood1986-09-21d2t10.flac:8577dc63c9993fa9499ba60d2a41abd6
nightfood1986-09-21d2t11.flac:c9f0579dad428dc653bd712d7be0cf96
nightfood1986-09-21d2t12.flac:82d5534c19ba1c7cba0494769a68ac4e
nightfood1986-09-21d2t13.flac:60a2097832abb5d7a642d4e69935eb3f
md5
8af4252ec0a65e3c48cd95e74f1d25ac *nightfood1986-09-21d1t01.flac
61235a41a5333788453eb3da5e255058 *nightfood1986-09-21d1t02.flac
e9df884826ede05320bbc051f34a63b8 *nightfood1986-09-21d1t03.flac
aeac1e3645867ed61e296ea5bb17aac8 *nightfood1986-09-21d1t04.flac
ab221081897cb9b6341d4085576dd0a0 *nightfood1986-09-21d1t05.flac
ccf2be05c44d07cb6d2779d34ee31519 *nightfood1986-09-21d1t06.flac
a5ae10fa09fa2ad9a5d5b4e9d6c84f69 *nightfood1986-09-21d1t07.flac
d7d3305a123cc51cd6e633d0e32657ea *nightfood1986-09-21d1t08.flac
d68009e77315c122fe4ad405d72e5920 *nightfood1986-09-21d1t09.flac
0848a51139323ee1c314b7d1a3366f13 *nightfood1986-09-21d1t10.flac
1afb1738def7e49ce95846b6ec54df62 *nightfood1986-09-21d1t11.flac
21b4d1a79b047638b89f55f9661619a0 *nightfood1986-09-21d1t12.flac
d585529d9c7f43f283c47dc4f1708036 *nightfood1986-09-21d2t01.flac
47654d83acabf9ccd5a30e3eb8782dcf *nightfood1986-09-21d2t02.flac
447cd3cf5b3b666908b9a168c80633fc *nightfood1986-09-21d2t03.flac
330b6a6d5ebe7fae63ffb3afafd884d8 *nightfood1986-09-21d2t04.flac
c69e923af0949c982d96b066b544d9b1 *nightfood1986-09-21d2t05.flac
006495a9fbbaa1359786b756f5421245 *nightfood1986-09-21d2t06.flac
358347bf41a9087860961c4de34d3ff5 *nightfood1986-09-21d2t07.flac
2cdc221358484bb93428826525d8194b *nightfood1986-09-21d2t08.flac
81ef30ec1f6edca78618f405e6ddbb81 *nightfood1986-09-21d2t09.flac
fcb7ec530662b95f5f36c32781c13c34 *nightfood1986-09-21d2t10.flac
db8ea8caff789e9a30edf3c08af9cdec *nightfood1986-09-21d2t11.flac
209b523f9c09ef9da1b822613280b5f1 *nightfood1986-09-21d2t12.flac
cd6fd064a22eb6754783b30f75c7169c *nightfood1986-09-21d2t13.flac

Comments
Add Comment
Other Sources (comments)
this shn set was downloaded... (0)
Date User Comment