Browse Collections Artists Sources   Search Dates

Add Show    List Management    Help


Grateful Dead 04/13/83
Patrick Gymnasium, U of Vermont, Burlington, VT
Comments Add Comment    Source Collectors    Add to Collection    Add to Want List    History
Source # 82876 Other Sources
Entered by Matt Vernon
Checksums ffp , flac-md5
Disc Counts 2 / 3
Media Size
Date Circulated
Date Added
02/25/2007
02/26/2007
Source Summary flac16; AUD Source: Nakamichi CM-300's (no shotguns) > patched thru one Sony D5 > Marantz PMD-340 > TDK SA-90's. Mics on stand aprx six feet high, set up second or third row up in the bleachers directly behind the soundboard. Transfer: MAC > Sony TC-D5M (no Dolby) > Realtek AC97 > Soundforge > CD-Wave > TLH v.1.0.0.72 > FLAC. Taped and transferred by Andrew F 
  Archive
Source Information - Download Text | Download Zip
GRATEFUL DEAD
Patrick Gymnasium
University of Vermont
Burlington VT
04-13-1983

Disc One (58:21)

01 Jack Straw
02 They Love Each Other >
03 Beat it on Down the Line
04 West LA Fade Away
05 Mama Tried >
06 Cumberland Blues
07 Ramble On Rose
08 Far From Me
09 My Brother Esau >
10 Might as Well
-- set break --

Disc Two (52:36)

01 crowd & tuning
02 Scarlet Begonias >
03 Fire on the Mountain  
04 Estimated Prophet >
05 Eyes of the World >
06 Maybe You Know >
-- Drums (Missing)

Disc Three (45:46)

01 Space >
02 Morning Dew >
03 Throwing Stones >
04 Good Lovin'
-- encore --
05 Touch of Grey

AUD Source: Nakamichi CM-300's (no shotguns) > patched thru one Sony D5 >
Marantz PMD-340 > TDK SA-90's. Mics on stand aprx six feet high, set up
second or third row up in the bleachers directly behind the soundboard.

Transfer: MAC > Sony TC-D5M (no Dolby) > Realtek AC97 > Soundforge >
CD-Wave > TLH v.1.0.0.72 > FLAC. Taped and transferred by Andrew F.

Notes:
- I did not record the drums at this concert... D'OH!
- Patches taken from ShnID-21921, located as follows:
- Jack Straw 0:00 > 0:03.
- Far From Me 0:00 > 0:09.
- Eyes of the World 6:13 > 6:19.
- Soundforge used to make fades, add patches, repair drop-outs.
- TLH used for SBE-OK, lossless compression, checksums.

md5

1227fc0c15f591fa3927bd2a94ccc185 *gd1983-04-13d1t01.flac
da07c0c0e99a4e1d92bfcd07a9a107be *gd1983-04-13d1t02.flac
7bd7aa6b88ecd9de6511dc4ae95ae5ee *gd1983-04-13d1t03.flac
843a95c1fcb0a0acd89e8139a2c01c1f *gd1983-04-13d1t04.flac
126a4168522c6c748f3b7550aecccd99 *gd1983-04-13d1t05.flac
cede63aff471bee83ce3c26a9e1433a6 *gd1983-04-13d1t06.flac
ee6c0908d2b6330d7dfee022a9bb511c *gd1983-04-13d1t07.flac
d432929c1d5eef839224659f7211d8c2 *gd1983-04-13d1t08.flac
85503787dfe3e49b6a82f15af58170a0 *gd1983-04-13d1t09.flac
2a03a969cb825e700765a90b365f8284 *gd1983-04-13d1t10.flac
a0171c3df83cb3b5c0820b0da8c4d2f9 *gd1983-04-13d2t01.flac
101c125fee560632f8c06427b2e70697 *gd1983-04-13d2t02.flac
aef67bc05f726a79f2edad3477ec9bf8 *gd1983-04-13d2t03.flac
012ba1b1d4001c4588a6d1bc6b39c24a *gd1983-04-13d2t04.flac
a2f40c04a2ce4040c2144c94004a1f37 *gd1983-04-13d2t05.flac
2b2f0d259a8a41732350b5221456445b *gd1983-04-13d2t06.flac
62d8504e74e1b23c85158be16365e057 *gd1983-04-13d3t01.flac
dbf4f4826b437d980fa74354a8a413e8 *gd1983-04-13d3t02.flac
475762e7d03946ec47cc93bddf1ec826 *gd1983-04-13d3t03.flac
d651d6d2f72518d63df32b091a5c1140 *gd1983-04-13d3t04.flac
f07d948fa6ad225fa9683ba4f7bd9e79 *gd1983-04-13d3t05.flac

ffp

gd1983-04-13d1t01.flac:558f7b102af1e3ff3262cab9d1271ab6
gd1983-04-13d1t02.flac:6a3f2fe57792e182d90a4fe1beb5c7c0
gd1983-04-13d1t03.flac:045028b924dec6e69f58db8e9af90733
gd1983-04-13d1t04.flac:dcfe8080e4ab481bb284b56c8a1a8c55
gd1983-04-13d1t05.flac:491dac2238db734035f579952334e100
gd1983-04-13d1t06.flac:3c146735577013b529923e0d4a0e0820
gd1983-04-13d1t07.flac:8756cdb3c872b50e621439872a8f1b61
gd1983-04-13d1t08.flac:537839cf0dc2de1fff45a76239799b99
gd1983-04-13d1t09.flac:7427c8f44dff16bef7da92e051194732
gd1983-04-13d1t10.flac:dccf382c5549bc41510ad460ebc90276
gd1983-04-13d2t01.flac:7b3ca184fce8436aa7430f94b68ced15
gd1983-04-13d2t02.flac:94db5988cb4edb760f689232821119b1
gd1983-04-13d2t03.flac:41fb05b79ff01622081368584037db21
gd1983-04-13d2t04.flac:d096226fa65d2f0123d0b2d6fd91f477
gd1983-04-13d2t05.flac:01c8bba9294d39e4d51e4eeb47edfded
gd1983-04-13d2t06.flac:6779837a3fc2fa7e82cba2ad7638f4e4
gd1983-04-13d3t01.flac:ff7cab4637caf12df56e1b1eaee72d74
gd1983-04-13d3t02.flac:1c3c1311e88636f70a2721b8753652d4
gd1983-04-13d3t03.flac:c6946410ba37e6cacb89165012b4c4b9
gd1983-04-13d3t04.flac:5eacd7b47a68a9b399994b5a4aaa6d1f
gd1983-04-13d3t05.flac:c68b13d0eb3c4e21f786b1777030f40d

shntool

    length     expanded size   cdr  WAVE problems filename
     6:29.74       68793692    ---   --   ---xx   gd1983-04-13d1t01.flac
     8:05.55       85683404    ---   --   ---xx   gd1983-04-13d1t02.flac
     3:41.16       39022076    ---   --   ---xx   gd1983-04-13d1t03.flac
     7:46.18       82244780    ---   --   ---xx   gd1983-04-13d1t04.flac
     2:47.71       29625836    ---   --   ---xx   gd1983-04-13d1t05.flac
     6:38.67       70364828    ---   --   ---xx   gd1983-04-13d1t06.flac
     7:16.22       76962188    ---   --   ---xx   gd1983-04-13d1t07.flac
     4:17.36       45419516    ---   --   ---xx   gd1983-04-13d1t08.flac
     6:39.45       70489484    ---   --   ---xx   gd1983-04-13d1t09.flac
     4:37.58       48999260    ---   --   ---xx   gd1983-04-13d1t10.flac
     0:43.02        7589948    ---   --   ---xx   gd1983-04-13d2t01.flac
    13:55.64      147444572    ---   --   ---xx   gd1983-04-13d2t02.flac
    12:09.06      128609756    ---   --   ---xx   gd1983-04-13d2t03.flac
    11:36.64      122924972    ---   --   ---xx   gd1983-04-13d2t04.flac
     9:56.00      105134444    ---   --   ---xx   gd1983-04-13d2t05.flac
     4:15.45       45087884    ---   --   ---xx   gd1983-04-13d2t06.flac
    10:05.62      106867868    ---   --   ---xx   gd1983-04-13d3t01.flac
    11:20.22      120003788    ---   --   ---xx   gd1983-04-13d3t02.flac
     8:50.58       93628460    ---   --   ---xx   gd1983-04-13d3t03.flac
     8:51.66       93823676    ---   --   ---xx   gd1983-04-13d3t04.flac
     6:37.72       70200188    ---   --   ---xx   gd1983-04-13d3t05.flac
   156:44.23     1658920620 B                     (totals for 21 files, 0.5638 overall compression ratio)

There were no sector boundary errors.
Show Checksums
ffp
gd1983-04-13d1t01.flac:558f7b102af1e3ff3262cab9d1271ab6
gd1983-04-13d1t02.flac:6a3f2fe57792e182d90a4fe1beb5c7c0
gd1983-04-13d1t03.flac:045028b924dec6e69f58db8e9af90733
gd1983-04-13d1t04.flac:dcfe8080e4ab481bb284b56c8a1a8c55
gd1983-04-13d1t05.flac:491dac2238db734035f579952334e100
gd1983-04-13d1t06.flac:3c146735577013b529923e0d4a0e0820
gd1983-04-13d1t07.flac:8756cdb3c872b50e621439872a8f1b61
gd1983-04-13d1t08.flac:537839cf0dc2de1fff45a76239799b99
gd1983-04-13d1t09.flac:7427c8f44dff16bef7da92e051194732
gd1983-04-13d1t10.flac:dccf382c5549bc41510ad460ebc90276
gd1983-04-13d2t01.flac:7b3ca184fce8436aa7430f94b68ced15
gd1983-04-13d2t02.flac:94db5988cb4edb760f689232821119b1
gd1983-04-13d2t03.flac:41fb05b79ff01622081368584037db21
gd1983-04-13d2t04.flac:d096226fa65d2f0123d0b2d6fd91f477
gd1983-04-13d2t05.flac:01c8bba9294d39e4d51e4eeb47edfded
gd1983-04-13d2t06.flac:6779837a3fc2fa7e82cba2ad7638f4e4
gd1983-04-13d3t01.flac:ff7cab4637caf12df56e1b1eaee72d74
gd1983-04-13d3t02.flac:1c3c1311e88636f70a2721b8753652d4
gd1983-04-13d3t03.flac:c6946410ba37e6cacb89165012b4c4b9
gd1983-04-13d3t04.flac:5eacd7b47a68a9b399994b5a4aaa6d1f
gd1983-04-13d3t05.flac:c68b13d0eb3c4e21f786b1777030f40d
flac-md5
1227fc0c15f591fa3927bd2a94ccc185 *gd1983-04-13d1t01.flac
da07c0c0e99a4e1d92bfcd07a9a107be *gd1983-04-13d1t02.flac
7bd7aa6b88ecd9de6511dc4ae95ae5ee *gd1983-04-13d1t03.flac
843a95c1fcb0a0acd89e8139a2c01c1f *gd1983-04-13d1t04.flac
126a4168522c6c748f3b7550aecccd99 *gd1983-04-13d1t05.flac
cede63aff471bee83ce3c26a9e1433a6 *gd1983-04-13d1t06.flac
ee6c0908d2b6330d7dfee022a9bb511c *gd1983-04-13d1t07.flac
d432929c1d5eef839224659f7211d8c2 *gd1983-04-13d1t08.flac
85503787dfe3e49b6a82f15af58170a0 *gd1983-04-13d1t09.flac
2a03a969cb825e700765a90b365f8284 *gd1983-04-13d1t10.flac
a0171c3df83cb3b5c0820b0da8c4d2f9 *gd1983-04-13d2t01.flac
101c125fee560632f8c06427b2e70697 *gd1983-04-13d2t02.flac
aef67bc05f726a79f2edad3477ec9bf8 *gd1983-04-13d2t03.flac
012ba1b1d4001c4588a6d1bc6b39c24a *gd1983-04-13d2t04.flac
a2f40c04a2ce4040c2144c94004a1f37 *gd1983-04-13d2t05.flac
2b2f0d259a8a41732350b5221456445b *gd1983-04-13d2t06.flac
62d8504e74e1b23c85158be16365e057 *gd1983-04-13d3t01.flac
dbf4f4826b437d980fa74354a8a413e8 *gd1983-04-13d3t02.flac
475762e7d03946ec47cc93bddf1ec826 *gd1983-04-13d3t03.flac
d651d6d2f72518d63df32b091a5c1140 *gd1983-04-13d3t04.flac
f07d948fa6ad225fa9683ba4f7bd9e79 *gd1983-04-13d3t05.flac

Comments
Add Comment
Other Sources (comments)
MSC -> Reel (3 3/4 ips) ->... (12) Source: MAC(FOB Sennheiser... (0) SDB>>CM>>C>>DAT>>CDR via... (2) flac 16 Source: 3... (1) flac16; Matrix by... (0) flac24; AUD: 2x... (1) flac16; AUD: 2x... (1) flac24; Updated... (1) flac16/48kHz; Set 2... (0) flac16; aud cassette... (0) flac24; aud cassette... (0) flac16/44.1... (0) flac24/48 ... (0)
Date User Comment
01/08/2008 other3 Why didn't you record the drums. Bunner for such a otherwise great recording.
01/08/2008 other3 So I got fat fingers, you get the point
01/10/2008 charlie miller Taping in 1983 was a bit different than it is today. A lot of tapers would skip taping drums if the pre-drums portion of the set was very long. That's what I did on 4/15/83. I had to patch the drums in from another source.
09/29/2012 nfagdtrfb This recording is upgraded by the transfer of the tape that came from the same mics and lead deck; 119531 (24bit) and 119554 (16bit).