Browse Collections Artists Sources   Search Dates

Add Show    List Management    Help


Garcia 11/20/91
Rochester Community War Memorial, Rochester, NY
Comments Add Comment    Source Collectors    Add to Collection    Add to Want List    History
Source # 82877 Other Sources
Entered by Joe Jupille
Checksums ffp , wav-md5
Disc Counts 2 / 2
Media Size
Date Circulated
Date Added
02/25/2007
02/26/2007
Source Summary JGB: Anne Cohen's Schoeps CMC5’s (FOB, handheld) > Panasonic SV255 > Sony TCD-D3 (48k DAT); Sony PCM500 > Zefiro Acoustics ZA2 > Tracked using Sound Forge 4.5 and CD Architect. 
Source Information - Download Text | Download Zip
Jerry Garcia Band
Community War Memorial
Rochester, NY
November 20, 1991

Source: Recorded by Anne Cohen: Schoeps CMC5�s > Panasonic SV255 > Sony TCD-D3 (48k DAT), fob handheld. Sony PCM500 > Zefiro Acoustics ZA2 > Tracked using Sound Forge 4.5 and CD Architect.

Disc One, Set 1 (66 minutes)
01. tuning [1:44]
02. Cats Under The Stars [9:24]
03. Stop That Train, I�m Leaving [8:27]
04. Money Honey [7:28]
05. Simple Twist Of Fate [12:45]
06. Lay Down Sally [9:54]
07. Like A Road [8:07]
08. Deal [8:04]

Disc Two, Set 2 (80 minutes)
01. tuning
02. The Way You Do The Things You Do [12:57]
03. Waiting For A Miracle [6:45]
04. Shining Star [11:37]
05. Ain�t No Bread In The Breadbox [10:00]
06. The Night They Drove Old Dixie Down [11:10]
07. Tangled Up In Blue [14:26]
08. E: (What A) Wonderful World

    length     expanded size   cdr  WAVE problems filename
     1:44.48       18458540    ---   --   ---xx   jgb91-11-20d1t01.flac
     9:24.24       99546092    ---   --   ---xx   jgb91-11-20d1t02.flac
     8:27.56       89566556    ---   --   ---xx   jgb91-11-20d1t03.flac
     7:28.34       79107212    ---   --   ---xx   jgb91-11-20d1t04.flac
    12:45.08      134964860    ---   --   ---xx   jgb91-11-20d1t05.flac
     9:54.68      104941580    ---   --   ---xx   jgb91-11-20d1t06.flac
     8:07.03       85913900    ---   --   ---xx   jgb91-11-20d1t07.flac
     8:04.29       85445852    ---   --   ---xx   jgb91-11-20d1t08.flac
     3:47.70       40207484    ---   --   ---xx   jgb91-11-20d2t01.flac
    12:57.18      137105180    ---   --   ---xx   jgb91-11-20d2t02.flac
     6:45.53       71566700    ---   --   ---xx   jgb91-11-20d2t03.flac
    11:37.37      123037868    ---   --   ---xx   jgb91-11-20d2t04.flac
    10:00.53      105964700    ---   --   ---xx   jgb91-11-20d2t05.flac
    11:10.45      118293884    ---   --   ---xx   jgb91-11-20d2t06.flac
    14:26.49      152877692    ---   --   ---xx   jgb91-11-20d2t07.flac
     8:24.19       88950332    ---   --   ---xx   jgb91-11-20d2t08.flac
   145:07.14     1535948432 B                     (totals for 16 files, 0.5628 overall compression ratio)
Show Checksums
ffp
jgb91-11-20d1t01.flac:2eb2824f2f5cec0d819b0fb4e27cfbdb
jgb91-11-20d1t02.flac:0059c52f21d8d79fffbdda7458ce74ff
jgb91-11-20d1t03.flac:aca0e230f7c03032dfedf8517f42aaf6
jgb91-11-20d1t04.flac:52ac0d719cef9c0f315b10ba0c8bc0d4
jgb91-11-20d1t05.flac:292586884e015e7eb9a848398bf10294
jgb91-11-20d1t06.flac:f164c34d80ee2da3d51e4e19d18c5cc9
jgb91-11-20d1t07.flac:10b0c32783b7b47fa9757dd14253ccce
jgb91-11-20d1t08.flac:cc43e411260843a31880c0086638c1a8
jgb91-11-20d2t01.flac:acfd80a2c160aa3bae66ef36845fc5bb
jgb91-11-20d2t02.flac:02c97554acc2e25a176b684244c5fb4a
jgb91-11-20d2t03.flac:7ac740c15a5cb3b51f531d630f80bffe
jgb91-11-20d2t04.flac:17e8309a7eb2e1531270a7f378d14874
jgb91-11-20d2t05.flac:4b1ee512f6366ac8c034e9ccccbaf431
jgb91-11-20d2t06.flac:fecf35707e22fa1235ce05cf3de44de4
jgb91-11-20d2t07.flac:e3fe33b765f5a40026f71b6208c7b6c0
jgb91-11-20d2t08.flac:451bbf31bcfd1875c9f35925562914c1
wav-md5
5b39e662af7ea900b10f4f479be84dde *jgb91-11-20d1t01.wav
88d3a247872fea00fc57d51b80c1abd8 *jgb91-11-20d1t02.wav
579606e441d3dc5f606a657b8d984b6e *jgb91-11-20d1t03.wav
b4e44628c42b16782beddc091e766f60 *jgb91-11-20d1t04.wav
cb8017062b2cc68c3b432a0874894b5e *jgb91-11-20d1t05.wav
0a5d306774d84195de4928b0c3084c6a *jgb91-11-20d1t06.wav
c7d60112ea13bbbfca1a954464f3a8af *jgb91-11-20d1t07.wav
0faac3cb6333a3469ecc2f73283334cd *jgb91-11-20d1t08.wav
83ac1af30c36d7cf78772f3b9e9320ba *jgb91-11-20d2t01.wav
d7bac687b525fcf335c2a9a1311f5e14 *jgb91-11-20d2t02.wav
d8bc797fa7f30a0a7cc535c5ee1f3ac0 *jgb91-11-20d2t03.wav
ef67da46aa828c0a64db8a2f4c4887b6 *jgb91-11-20d2t04.wav
b294652280de76e337e70575a52e1640 *jgb91-11-20d2t05.wav
1009340b311cdec48e9cd94f17551f4e *jgb91-11-20d2t06.wav
7a5ad03d1d24d72002a0936526cd4ef8 *jgb91-11-20d2t07.wav
fc271f737708ffbdada3571f10a2a8cc *jgb91-11-20d2t08.wav

Comments
Add Comment
Other Sources (comments)
Jerry Garcia Band: Schoeps... (3) Jerry Garcia Band: Taped by... (0) JGB: flac24/96kHz; Master... (0) JGB: flac16/44.1kHz; Master... (0)
Date User Comment