Browse Collections Artists Sources   Search Dates

Add Show    List Management    Help


Outformation 02/15/07
Cat's Cradle, Carrboro, NC
Comments Add Comment    Source Collectors    Add to Collection    Add to Want List    History
Source # 82903 Other Sources
Entered by Todd
Checksums ffp
Disc Counts 2 / 3
Media Size
Date Circulated
Date Added
02/16/2007
02/26/2007
Source Summary (FOB) Neumann AK40/LC3/KM100 > SD 722 @ (24/96) > WaveLab > Flac
Recorded by Tim Fraley, Transfered by Stacey Ochs 
  Archive
Source Information - Download Text | Download Zip
Outformation
02/15/07
Cat's Cradle
Carrboro, NC

Source: Neumann ak40 > lc3 > km100 > SD 722 @ (24/96)
Location: FOB/DFC/DIN
Transfer: 722~>cdwave~>wavelab5~>flac level 6
Recorded by Tim Fraley
Transferred by Stacey Ochs

** 16 bit**

Set I/ Disc I:
01: Edgewater
02: Carnac
03: Into My Arms
04: Unwound
05: Anymore
06: The Take Out
07: Can't Change The Past
08: Toy's Lament

Set II/ Disc II:
01: Birddogg Techno Jam >
02: Valley Blue
03: Traveler's Rest
04: You Got Yours
05: 'Bout My Money
06: Later
07: Searchin' For A Rainbow
08: Winds
09: SG
10: Long Hard Ride
11: Sweet Louisiana

Encore/ Disc III:
01: Tuning/Intro
02: 90
03: Solid Country Gold >
04: Jam >
05: Burned Faceless

Notes: First 'Anymore'

Thanks to Setformation for the setlist!  www.setformation.com
For everything Outformation, www.foryouroutformation.com

ffp:
out 2007-02-07 d2 t11.flac:089e56d2009e89d6aeeb02daf01f9114
out 2007-02-07 d1 t1.flac:0ba318c1819707b7a8ffb7410940abfe
out 2007-02-07 d1 t2.flac:0fdc18d52c5ae911f1d9eae38e6938db
out 2007-02-07 d1 t3.flac:dfafc99dd30af0c640f0db20b78f9c14
out 2007-02-07 d1 t4.flac:69c710a3e6cff47fb00cff1c03e48f46
out 2007-02-07 d1 t5.flac:1df3f2061587342b74858f863e02f041
out 2007-02-07 d1 t6.flac:5cfb01d85aa8eb94c9b567344c8476e6
out 2007-02-07 d1 t7.flac:858a8ba4a5ec80811aacd2b210b5e373
out 2007-02-07 d1 t8.flac:430f4961208ab3ba86b619521e27c597
out 2007-02-07 d2 t1.flac:767500bc4a0baa62640b30c8d71a31a0
out 2007-02-07 d2 t2.flac:fc4826a9b1aea458e47d0ae90829cb7a
out 2007-02-07 d2 t3.flac:7caf64914b60df8460e77089755b93cf
out 2007-02-07 d2 t4.flac:0494c0326f377b29a34d02a38a4e37e7
out 2007-02-07 d2 t5.flac:b0c18babc985ba0c61240ba7f025c86a
out 2007-02-07 d2 t6.flac:14d26d14643d4707a0fa37085d268332
out 2007-02-07 d2 t7.flac:d4d49f1462e1cd030d2410f1cc16fc3c
out 2007-02-07 d2 t8.flac:f5904c78f6ce5988a6a4a79afc306937
out 2007-02-07 d2 t9.flac:4a2c5612842843e898030a2db1f1937d
out 2007-02-07 d2 t10.flac:362a13c7a97537f657ba12ea9288194a

shntool:
    length     expanded size   cdr  WAVE problems filename
     6:32.47       69259388    ---   --   ---xx   out 2007-02-15 d1 t1.flac
     4:46.17       50490428    ---   --   ---xx   out 2007-02-15 d1 t2.flac
     7:00.00       74088044    ---   --   ---xx   out 2007-02-15 d1 t3.flac
    10:41.00      113072444    ---   --   ---xx   out 2007-02-15 d1 t4.flac
     4:05.37       43305068    ---   --   ---xx   out 2007-02-15 d1 t5.flac
     2:15.36       23898716    ---   --   ---xx   out 2007-02-15 d1 t6.flac
     5:26.55       57635804    ---   --   ---xx   out 2007-02-15 d1 t7.flac
     7:56.50       84084044    ---   --   ---xx   out 2007-02-15 d1 t8.flac
     3:25.49       36277292    ---   --   ---xx   out 2007-02-15 d2 t1.flac
     5:59.50       63445244    ---   --   ---xx   out 2007-02-15 d2 t10.flac
     4:41.00       49568444    ---   --   ---xx   out 2007-02-15 d2 t11.flac
     3:11.52       33814748    ---   --   ---xx   out 2007-02-15 d2 t2.flac
     8:20.55       88329404    ---   --   ---xx   out 2007-02-15 d2 t3.flac
     8:50.51       93611996    ---   --   ---xx   out 2007-02-15 d2 t4.flac
    14:36.07      154542908    ---   --   ---xx   out 2007-02-15 d2 t5.flac
     6:19.16       66893276    ---   --   ---xx   out 2007-02-15 d2 t6.flac
     8:13.44       87068732    ---   --   ---xx   out 2007-02-15 d2 t7.flac
     7:00.38       74177420    ---   --   ---xx   out 2007-02-15 d2 t8.flac
     4:27.42       47197628    ---   --   ---xx   out 2007-02-15 d2 t9.flac
     1:16.59       13545212    ---   --   ---xx   out 2007-02-15 d3 t1.flac
     7:54.47       83724188    ---   --   ---xx   out 2007-02-15 d3 t2.flac
     3:11.18       33734780    ---   --   ---xx   out 2007-02-15 d3 t3.flac
     3:59.06       42173756    ---   --   ---xx   out 2007-02-15 d3 t4.flac
     4:27.60       47239964    ---   --   ---xx   out 2007-02-15 d3 t5.flac
   144:40.11     1531178928 B                     (totals for 24 files, 0.6321 overall compression ratio)

There were no sector boundary errors.
Show Checksums
ffp
out 2007-02-07 d2 t11.flac:089e56d2009e89d6aeeb02daf01f9114
out 2007-02-07 d1 t1.flac:0ba318c1819707b7a8ffb7410940abfe
out 2007-02-07 d1 t2.flac:0fdc18d52c5ae911f1d9eae38e6938db
out 2007-02-07 d1 t3.flac:dfafc99dd30af0c640f0db20b78f9c14
out 2007-02-07 d1 t4.flac:69c710a3e6cff47fb00cff1c03e48f46
out 2007-02-07 d1 t5.flac:1df3f2061587342b74858f863e02f041
out 2007-02-07 d1 t6.flac:5cfb01d85aa8eb94c9b567344c8476e6
out 2007-02-07 d1 t7.flac:858a8ba4a5ec80811aacd2b210b5e373
out 2007-02-07 d1 t8.flac:430f4961208ab3ba86b619521e27c597
out 2007-02-07 d2 t1.flac:767500bc4a0baa62640b30c8d71a31a0
out 2007-02-07 d2 t2.flac:fc4826a9b1aea458e47d0ae90829cb7a
out 2007-02-07 d2 t3.flac:7caf64914b60df8460e77089755b93cf
out 2007-02-07 d2 t4.flac:0494c0326f377b29a34d02a38a4e37e7
out 2007-02-07 d2 t5.flac:b0c18babc985ba0c61240ba7f025c86a
out 2007-02-07 d2 t6.flac:14d26d14643d4707a0fa37085d268332
out 2007-02-07 d2 t7.flac:d4d49f1462e1cd030d2410f1cc16fc3c
out 2007-02-07 d2 t8.flac:f5904c78f6ce5988a6a4a79afc306937
out 2007-02-07 d2 t9.flac:4a2c5612842843e898030a2db1f1937d
out 2007-02-07 d2 t10.flac:362a13c7a97537f657ba12ea9288194a

Comments
Add Comment
Other Sources (comments)
(FOB) Peluso CEMC-6/CK4 >... (0) AKG 461> BMp2 + UA-5 > NJB3... (0) SBD + (FOB) Schoeps... (0)
Date User Comment