Browse Collections Artists Sources   Search Dates

Add Show    List Management    Help


Grateful Dead 02/19/73
International Amphitheatre, Chicago, IL
Comments Add Comment    Source Collectors    Add to Collection    Add to Want List    History
Source # 83023 Other Sources
Entered by Matt Vernon
Checksums ffp , flac-md5
Disc Counts 1 / 2
Media Size
Date Circulated
Date Added
03/03/2007
03/03/2007
Source Summary flac16; Set 2 Recording Info: SBD -> Cassette Master (Ampex C-90) -> Dat (44.1k) Transfer Info: Dat (Sony R500) -> Samplitude Professional v8.01 -> FLAC All Transfers and Mastering By Charlie Miller 
  Archive
Source Information - Download Text | Download Zip
Grateful Dead - February 19, 1973
International Amphitheatre - Chicago, IL
**Set 2 Soundboard**

Recording Info:
SBD -> Cassette Master (Ampex C-90) -> Dat (44.1k)

Transfer Info:
Dat (Sony R500) -> Samplitude Professional v8.01 -> FLAC
(2 Discs Audio / 1 Disc FLAC)

All Transfers and Mastering By Charlie Miller
[email protected]
March 2, 2007

Notes:
-- Set 2 is seamless (put the disc change where you want it)
-- Thanks to Steve Rolfe for the Dat
-- Tuning track patched from shnid=15589
-- Tape flip between The Other One and Eyes Of The World
-- Minor azimuth issues before tape flip
-- Sound improves after the tape flip

Set 2:
s2t01 - Tuning
s2t02 - He's Gone ->
s2t03 - Truckin' ->
s2t04 - The Other One ->
s2t05 - Eyes Of The World ->
s2t06 - China Doll
s2t07 - Sugar Magnolia
s2t08 - Casey Jones


SHNTOOL OUTPUT:
    length     expanded size   cdr  WAVE problems filename
     1:42.71       18159836    ---   --   -----   gd73-02-19s2t01.wav
    14:28.01      153117596    ---   --   -----   gd73-02-19s2t02.wav
    12:31.09      132497612    ---   --   -----   gd73-02-19s2t03.wav
    15:06.28      159884300    ---   --   -----   gd73-02-19s2t04.wav
    20:26.31      216339356    ---   --   -----   gd73-02-19s2t05.wav
     7:20.40       77710124    ---   --   -----   gd73-02-19s2t06.wav
     8:09.13       86290220    ---   --   -----   gd73-02-19s2t07.wav
     6:18.18       66721580    ---   --   -----   gd73-02-19s2t08.wav
    86:02.61      910720624 B                     (totals for 8 files)

Show Checksums
ffp
gd73-02-19s2t01.flac:16f60d05c5260c6dd08cbbf9e4340e81
gd73-02-19s2t02.flac:82e80622a6d69fe129b97d99d1946981
gd73-02-19s2t03.flac:cae60101292779a321e899a6e00d365e
gd73-02-19s2t04.flac:f7da0e29cafb34d89372bd6dc0bbf6db
gd73-02-19s2t05.flac:7e03fcd143e88d8c1ffa72eb264c9380
gd73-02-19s2t06.flac:f9dea83fc7319275df5f976bb5c767c9
gd73-02-19s2t07.flac:ca2e014f463d8a356c874a8cc09d4716
gd73-02-19s2t08.flac:3c33ed13d4b0554752eeda6fb88bfbce
flac-md5
caa544415c5fa77365c8fea1f8b554d3 *gd73-02-19s2t01.flac
6a20ee38f89fcfaabfef841887243dd8 *gd73-02-19s2t02.flac
98355bca77764900bd343ccf1ff35668 *gd73-02-19s2t03.flac
ba0bafdce4e289f808bcdb1191a987ab *gd73-02-19s2t04.flac
cc1d266a50be56f50c37ff894eb68bab *gd73-02-19s2t05.flac
c83432b20193d9dc30994306d6544c73 *gd73-02-19s2t06.flac
59fbca77e30462e7b4af736d551079ae *gd73-02-19s2t07.flac
37736fcce5f171287d8652dfbdca6cf7 *gd73-02-19s2t08.flac

Comments
Add Comment
Other Sources (comments)
set 2 partial; SBD> MC> C>... (0) SBD : MC > C > DAT > SS >... (2)
Date User Comment