Browse Collections Artists Sources   Search Dates

Add Show    List Management    Help


Grateful Dead 05/10/80
Hartford Civic Center, Hartford, CT
Comments Add Comment    Source Collectors    Add to Collection    Add to Want List    History
Source # 83063 Other Sources
Entered by Matt Vernon
Checksums flac-md5 , ffp
Disc Counts 2 / 3
Media Size
Date Circulated
Date Added
03/04/07
03/04/2007
Source Summary flac16; Recording by Jim Wise: AUD Source: Three Nakamichi CM-300\'s > patched thru Nakamichi 550 > Sony TC-D5. Mics on a stand, next to the soundboard. Taped and transferred (MAC > CDR) by Jim Wise. Transfer: MAC > CD (likely equipment: Nakamichi Dragon > HHB CDR burner). CDR > EAC > WavMerge > Soundforge > CD-Wave > TLH > FLAC, by Andrew F 
  Archive
Source Information - Download Text | Download Zip
GRATEFUL DEAD
Civic Center
Hartford CT
05-10-1980

Disc One (63:28)

01 crowd & tuning
02 Minglewood
03 Peggy O
04 Mexicali Blues >
05 El Paso
06 Althea
07 Passenger
08 Far From Me
09 Lost Sailor >
10 Saint of Circumstance >
11 Deal
-- set break --

Disc Two (70:21)

01 crowd & tuning
02 China Cat Sunflower >
03 I Know You Rider
04 crowd & tuning
05 Feel Like a Stranger >
06 Comes a Time >
07 Estimated Prophet >
08 He's Gone >
09 Uncle John's Band >

Disc Three (38:53)

01 Drums >
02 Space >
03 Not Fade Away >
04 Sugar Magnolia
-- encore --
05 Alabama Getaway >
06 One More Saturday Night

AUD Source: Three Nakamichi CM-300's > patched thru Nakamichi 550 > Sony
TC-D5. Mics on a stand, next to the soundboard. Taped and transferred
(MAC > CDR) by Jim Wise.

Transfer: MAC > CD (likely equipment: Nakamichi Dragon > HHB CDR burner).
CDR > EAC > WavMerge > Soundforge > CD-Wave > TLH > FLAC, by Andrew F.

Notes:

This is from the same MAC that became ShnID-7559, but is an upgrade to
that file-set as follows:
- One of the transfers in the lineage of 7559 was run way too hot, and
all the wav's ended up clipped and distorted. This seed is an excellent
transfer from the MAC and a major improvement in sound quality.
- This source does not have the drop-outs in He's Gone that are on 7559.
- The two tape flips in the second set have been patched with material
from Steve Rolfe's tape (ShnID-18158), so the second set is seamless.

Rolfe reports he was set up "right beside the soundboard on the left
side". As the same people can be heard yelling on both sources, it's
presumed that the tapers were set up very near to each other.

Patches from ShnID-18158 are located in: Passenger (crowd noise at end)
5:09 > 5:23, Estimated Prophet 9:12 > 9:21, Drums 8:39 > 8:47. WavMerge
and CD-Wave were used to combine and retrack the file set. Soundforge
was used to make fades, and to insert the patches. TLH was used for SBE
fix, lossless compression, and checksums. There are numerous fireworks
and loud explosions during the show. THANKS to Jim for the discs!

shntool

    length     expanded size   cdr  WAVE problems filename
     1:21.34       14368412    ---   --   ---xx   gd1980-05-10d1t01.flac
     7:24.13       78352220    ---   --   ---xx   gd1980-05-10d1t02.flac
     7:17.27       77150348    ---   --   ---xx   gd1980-05-10d1t03.flac
     4:17.34       45414812    ---   --   ---xx   gd1980-05-10d1t04.flac
     5:49.06       61577756    ---   --   ---xx   gd1980-05-10d1t05.flac
     9:10.21       97069436    ---   --   ---xx   gd1980-05-10d1t06.flac
     6:09.02       65096348    ---   --   ---xx   gd1980-05-10d1t07.flac
     5:00.21       52969436    ---   --   ---xx   gd1980-05-10d1t08.flac
     6:12.49       65736092    ---   --   ---xx   gd1980-05-10d1t09.flac
     5:51.05       61928204    ---   --   ---xx   gd1980-05-10d1t10.flac
     4:55.73       52209740    ---   --   ---xx   gd1980-05-10d1t11.flac
     0:48.23        8521340    ---   --   ---xx   gd1980-05-10d2t01.flac
     6:32.50       69266444    ---   --   ---xx   gd1980-05-10d2t02.flac
     7:56.22       84018188    ---   --   ---xx   gd1980-05-10d2t03.flac
     1:52.45       19862684    ---   --   ---xx   gd1980-05-10d2t04.flac
     7:42.00       81496844    ---   --   ---xx   gd1980-05-10d2t05.flac
     8:42.22       92132588    ---   --   ---xx   gd1980-05-10d2t06.flac
    10:39.13      112750220    ---   --   ---xx   gd1980-05-10d2t07.flac
    14:40.32      155307308    ---   --   ---xx   gd1980-05-10d2t08.flac
    11:27.72      121356188    ---   --   ---xx   gd1980-05-10d2t09.flac
    10:03.31      106442156    ---   --   ---xx   gd1980-05-10d3t01.flac
     2:30.45       26565884    ---   --   ---xx   gd1980-05-10d3t02.flac
     7:30.59       79518812    ---   --   ---xx   gd1980-05-10d3t03.flac
     8:56.65       94703324    ---   --   ---xx   gd1980-05-10d3t04.flac
     4:40.64       49542572    ---   --   ---xx   gd1980-05-10d3t05.flac
     5:10.38       54773420    ---   --   ---xx   gd1980-05-10d3t06.flac
   172:43.41     1828130776 B                     (totals for 26 files, 0.6487 overall compression ratio)

There were no sector boundary errors.
Show Checksums
flac-md5
3cf9f213aefa6ffcd5a1cf1e9ed7eda6 *gd1980-05-10d1t01.flac
7f8c96f4007fa4b879cee3cfb6797174 *gd1980-05-10d1t02.flac
148203007a28516cbf418cd71f4fb0c6 *gd1980-05-10d1t03.flac
115f2e720347f950257c736dfae348a0 *gd1980-05-10d1t04.flac
674edae0404dc24732fc6f5235c8b843 *gd1980-05-10d1t05.flac
17b88a4f182f0c463c6b16282bae6809 *gd1980-05-10d1t06.flac
49df4481e37be9aa90330d77d40715e8 *gd1980-05-10d1t07.flac
2050050e5797cbedb0cced59b2304969 *gd1980-05-10d1t08.flac
0b5dbcba7c8203d848c3a7d74bf45009 *gd1980-05-10d1t09.flac
0ffe2c5bfa6c3fa95356ad61a98cc29c *gd1980-05-10d1t10.flac
ad4c58c959f974fc8739ba7d1637b432 *gd1980-05-10d1t11.flac
96c10f4cb1ec5e716c83d3d4d32f5f9f *gd1980-05-10d2t01.flac
73fc581782312f79d82ade8e7da4f264 *gd1980-05-10d2t02.flac
9a5f3c21d87f9186300f5a25571745a0 *gd1980-05-10d2t03.flac
01e5de47c2bec0e9c23b24c50823746e *gd1980-05-10d2t04.flac
52100b9130ad5120703ed9a13d882f6e *gd1980-05-10d2t05.flac
a32bc7bcf665cf9ec7c82769bc37338e *gd1980-05-10d2t06.flac
8f8f75d4d86db7a57cb86b15f00d8d4b *gd1980-05-10d2t07.flac
12fa05ba8e5adeb003b7d74dcd0546e8 *gd1980-05-10d2t08.flac
17dfa9f3eb7fe66701f85ee5bb5d6e91 *gd1980-05-10d2t09.flac
e447d3bca13c669d2ade82da38a50b40 *gd1980-05-10d3t01.flac
d21adce88081168e9a56dee3e6b225ca *gd1980-05-10d3t02.flac
4ead6f6241effd0cd274c115278ae49b *gd1980-05-10d3t03.flac
1f1cf39e2ee1c9a38a133256fa9670b3 *gd1980-05-10d3t04.flac
c92f68bdf157f5ec483b4fe7ff62c8db *gd1980-05-10d3t05.flac
4148c2a067cdd838e9df731713831076 *gd1980-05-10d3t06.flac
ffp
gd1980-05-10d1t01.flac:7ee0ec255113ec6d64294ed78d94aaed
gd1980-05-10d1t02.flac:d42f38ad3c6cc7ee488514f3c7087420
gd1980-05-10d1t03.flac:d9fd7fd11e6650ce9e51f2f463078929
gd1980-05-10d1t04.flac:c61f3d6a456fe09433c8c5ccf83fb3bc
gd1980-05-10d1t05.flac:a2b64acefe0b418964153d511f9d71ce
gd1980-05-10d1t06.flac:b9c15eb1d3d6a056929a6ee4eab328d5
gd1980-05-10d1t07.flac:b2874b853ac31ed56b1ffcaf6fecd2e5
gd1980-05-10d1t08.flac:6124574ecd7bfc759315b6ed896b96e1
gd1980-05-10d1t09.flac:07cff659dd7cdc0d6e9f9e6f28cb65d2
gd1980-05-10d1t10.flac:c5e59e439e3049990c0c433871f5777d
gd1980-05-10d1t11.flac:1555066fd1070ce8079be04788a9cf41
gd1980-05-10d2t01.flac:b2856c95b4007b122fc798b72b488321
gd1980-05-10d2t02.flac:b479daa352d3b568c34fee851d1676be
gd1980-05-10d2t03.flac:cc4ac28839e91d6de9020490a77591fa
gd1980-05-10d2t04.flac:16fb9d4792905af58a4bb369fbac4cca
gd1980-05-10d2t05.flac:e52661efd4c1dd2bac276bacf4182be7
gd1980-05-10d2t06.flac:1fad31f4e10cc09f5fecbf23a88b65e5
gd1980-05-10d2t07.flac:dc73770b19a6451feeb490cd68891a90
gd1980-05-10d2t08.flac:37b18cd0ebc50eacb1dc44f02f94652e
gd1980-05-10d2t09.flac:2eaefeb00cabb8e9f4c86611d6b608f0
gd1980-05-10d3t01.flac:d14b0f6ce181729a9af0d14aabc69df7
gd1980-05-10d3t02.flac:0053c125f487d53d6534a4176e36dfdb
gd1980-05-10d3t03.flac:5b2a3f3981dfdc1a09ae7e7ade783a7c
gd1980-05-10d3t04.flac:06f3587e67bc3f861db6358e271ce909
gd1980-05-10d3t05.flac:c0a036dd441f1c68848ecaf01e6f0ed7
gd1980-05-10d3t06.flac:1b8dc02438dbeb7748bc7325c4995234

Comments
Add Comment
Other Sources (comments)
Recording by Steve Rolfe:... (4) Recording by Steve Rolfe:... (3) flac16; Set 2 only,... (0) flac16; Recorded by... (0) flac16; Source:(FOB)... (0) flac16; Recording... (0) flac24; AUD: 2x... (2) flac16; AUD: 2x... (2) flac16; 2 X Nak... (0) flac24; 2 X Nak... (0) flac24; Cassette... (0) flac16/48kHz;... (0)
Date User Comment
05/13/2007 charlie miller Jim ran Nak 700's at this show. Here is a quote from Jim Wise yesterday:

that tape was 3 nak 700's with shotgun capsules to a nak 550 > sony d5 (my deck)...we were at the sbd ... i've digitized it twice...once with dolby out & once with dolby in