Browse Collections Artists Sources   Search Dates

Add Show    List Management    Help


Outformation 02/07/07
The Canal Club, Richmond, VA
Comments Add Comment    Source Collectors    Add to Collection    Add to Want List    History
Source # 83109 Other Sources
Entered by
Checksums ffp
Disc Counts 2 / 2
Media Size
Date Circulated
Date Added
02/09/2007
03/07/2007
Source Summary (FOB) Neumann AK40/LC3/KM100 > SD722 > WaveLab > Flac(6)
Recorded and transfered by Stacey Ochs 
  Archive
Source Information - Download Text | Download Zip
Outformation
2007-02-07
The Canal Club
Richmond, VA

Source: Neumann ak40 > lc3 > km100 > SD 722 @ (24/96)
Location: FOB/DFC/DIN
Transfer: 722~>cdwave~>wavelab5~>flac level 6
Recorded & Transferred by Stacey Ochs

Disc One/ Set One:
01: Unwound
02: Cattle Drive
03: Valley Blue
04: Lonesome, Orn'ry & Mean
05: Carnac
06: Time Is Free Jam >
07: 'Bout My Money
08: Stone In My Shoe

Disc Two/ Set Two:
01: Toy's Lament
02: Can't Change The Past
03: Into My Arms
04: Titles Of Movies Will Not Appear On Bill
05: West L.A. Fadeaway
06: Camper >
07: Titles Of Movies Will Not Appear On Bill (Reprise)
08: Winds
09: 90

Encore:
10: Later
11: Long Hard Ride

Setlist compliments of Setformation www.setformation.com
www.foryouroutformation.com

ffp:
out 2007-02-07 d2 t11.flac:089e56d2009e89d6aeeb02daf01f9114
out 2007-02-07 d1 t1.flac:0ba318c1819707b7a8ffb7410940abfe
out 2007-02-07 d1 t2.flac:0fdc18d52c5ae911f1d9eae38e6938db
out 2007-02-07 d1 t3.flac:dfafc99dd30af0c640f0db20b78f9c14
out 2007-02-07 d1 t4.flac:69c710a3e6cff47fb00cff1c03e48f46
out 2007-02-07 d1 t5.flac:1df3f2061587342b74858f863e02f041
out 2007-02-07 d1 t6.flac:5cfb01d85aa8eb94c9b567344c8476e6
out 2007-02-07 d1 t7.flac:858a8ba4a5ec80811aacd2b210b5e373
out 2007-02-07 d1 t8.flac:430f4961208ab3ba86b619521e27c597
out 2007-02-07 d2 t1.flac:767500bc4a0baa62640b30c8d71a31a0
out 2007-02-07 d2 t2.flac:fc4826a9b1aea458e47d0ae90829cb7a
out 2007-02-07 d2 t3.flac:7caf64914b60df8460e77089755b93cf
out 2007-02-07 d2 t4.flac:0494c0326f377b29a34d02a38a4e37e7
out 2007-02-07 d2 t5.flac:b0c18babc985ba0c61240ba7f025c86a
out 2007-02-07 d2 t6.flac:14d26d14643d4707a0fa37085d268332
out 2007-02-07 d2 t7.flac:d4d49f1462e1cd030d2410f1cc16fc3c
out 2007-02-07 d2 t8.flac:f5904c78f6ce5988a6a4a79afc306937
out 2007-02-07 d2 t9.flac:4a2c5612842843e898030a2db1f1937d
out 2007-02-07 d2 t10.flac:362a13c7a97537f657ba12ea9288194a

shntool:
    length     expanded size   cdr  WAVE problems filename
    11:19.71      119942636    ---   --   ---xx   out 2007-02-07 d1 t1.flac
    10:16.43      108763580    ---   --   ---xx   out 2007-02-07 d1 t2.flac
     3:53.73       41272940    ---   --   ---xx   out 2007-02-07 d1 t3.flac
     3:58.38       42072620    ---   --   ---xx   out 2007-02-07 d1 t4.flac
     4:49.01       50981996    ---   --   ---xx   out 2007-02-07 d1 t5.flac
     3:14.55       34351004    ---   --   ---xx   out 2007-02-07 d1 t6.flac
    12:43.33      134670860    ---   --   ---xx   out 2007-02-07 d1 t7.flac
    14:47.43      156567980    ---   --   ---xx   out 2007-02-07 d1 t8.flac
     8:54.16       94235276    ---   --   ---xx   out 2007-02-07 d2 t1.flac
     7:09.46       75783836    ---   --   ---xx   out 2007-02-07 d2 t10.flac
     4:55.31       52110956    ---   --   ---xx   out 2007-02-07 d2 t11.flac
     5:23.41       57073676    ---   --   ---xx   out 2007-02-07 d2 t2.flac
     6:36.46       69962636    ---   --   ---xx   out 2007-02-07 d2 t3.flac
     5:55.55       62751404    ---   --   ---xx   out 2007-02-07 d2 t4.flac
     6:30.66       68951276    ---   --   ---xx   out 2007-02-07 d2 t5.flac
     1:42.46       18101036    ---   --   ---xx   out 2007-02-07 d2 t6.flac
     3:24.21       36035036    ---   --   ---xx   out 2007-02-07 d2 t7.flac
     6:47.47       71905388    ---   --   ---xx   out 2007-02-07 d2 t8.flac
    10:32.20      111531884    ---   --   ---xx   out 2007-02-07 d2 t9.flac
   132:56.42     1407066020 B                     (totals for 19 files, 0.5691 overall compression ratio)

There were no sector boundary errors.
Show Checksums
ffp
out 2007-02-07 d2 t11.flac:089e56d2009e89d6aeeb02daf01f9114
out 2007-02-07 d1 t1.flac:0ba318c1819707b7a8ffb7410940abfe
out 2007-02-07 d1 t2.flac:0fdc18d52c5ae911f1d9eae38e6938db
out 2007-02-07 d1 t3.flac:dfafc99dd30af0c640f0db20b78f9c14
out 2007-02-07 d1 t4.flac:69c710a3e6cff47fb00cff1c03e48f46
out 2007-02-07 d1 t5.flac:1df3f2061587342b74858f863e02f041
out 2007-02-07 d1 t6.flac:5cfb01d85aa8eb94c9b567344c8476e6
out 2007-02-07 d1 t7.flac:858a8ba4a5ec80811aacd2b210b5e373
out 2007-02-07 d1 t8.flac:430f4961208ab3ba86b619521e27c597
out 2007-02-07 d2 t1.flac:767500bc4a0baa62640b30c8d71a31a0
out 2007-02-07 d2 t2.flac:fc4826a9b1aea458e47d0ae90829cb7a
out 2007-02-07 d2 t3.flac:7caf64914b60df8460e77089755b93cf
out 2007-02-07 d2 t4.flac:0494c0326f377b29a34d02a38a4e37e7
out 2007-02-07 d2 t5.flac:b0c18babc985ba0c61240ba7f025c86a
out 2007-02-07 d2 t6.flac:14d26d14643d4707a0fa37085d268332
out 2007-02-07 d2 t7.flac:d4d49f1462e1cd030d2410f1cc16fc3c
out 2007-02-07 d2 t8.flac:f5904c78f6ce5988a6a4a79afc306937
out 2007-02-07 d2 t9.flac:4a2c5612842843e898030a2db1f1937d
out 2007-02-07 d2 t10.flac:362a13c7a97537f657ba12ea9288194a

Comments
Add Comment
Other Sources (comments)
(2)(FOB/Ceiling) DPA 4011 >... (0)
Date User Comment