Browse Collections Artists Sources   Search Dates

Add Show    List Management    Help


Grateful Dead 09/13/83
Manor Downs, Austin, TX
Comments Add Comment    Source Collectors    Add to Collection    Add to Want List    History
Source # 83117 Other Sources
Entered by Matt Vernon
Checksums ffp , flac-md5
Disc Counts 2 / 3
Media Size
Date Circulated
Date Added
03/07/2007
03/07/2007
Source Summary flac16; Recording Info: (FOB) Sennheiser 441 -> PCM -> Dat Transfer Info: Dat -> CD (Tascam CDRW700) -> Samplitude Professional v8.01 -> FLAC All Transfers and Mastering By Charlie Miller 
  Archive
Source Information - Download Text | Download Zip
Grateful Dead - September 13, 1983
Manor Downs - Austin, TX

Recording Info:
(FOB) Sennheiser 441 -> PCM -> Dat

Transfer Info:
Dat -> CD (Tascam CDRW700) -> Samplitude Professional v8.01 -> FLAC
(3 Discs Audio / 2 Discs FLAC)

All Transfers and Mastering By Charlie Miller
[email protected]
March 4, 2007

Notes:
-- Set 2 is seamless
-- Dat transfer done in 2000

Set 1:
d1t01 - Bertha
d1t02 - Little Red Rooster
d1t03 - Loser
d1t04 - Cassidy
d1t05 - Don't Ease Me In
d1t06 - My Brother Esau
d1t07 - Brown Eyed Women
d1t08 - The Music Never Stopped ->
d1t09 - Might As Well

Set 2:
d2t01 - Scarlet Begonias ->
d2t02 - Fire On The Mountain
d2t03 - Truckin' ->
d2t04 - Drums ->
d3t01 - Space ->
d3t02 - Spanish Jam ->
d3t03 - The Wheel ->
d3t04 - Throwing Stones ->
d3t05 - Not Fade Away

Encore:
d3t06 - Brokedown Palace


SHNTOOL OUTPUT:
    length     expanded size   cdr  WAVE problems filename
     8:28.34       89691212    ---   --   -----   gd83-09-13d1t01.wav
    11:45.43      124463180    ---   --   -----   gd83-09-13d1t02.wav
     9:47.02      103551548    ---   --   -----   gd83-09-13d1t03.wav
     7:17.46       77195036    ---   --   -----   gd83-09-13d1t04.wav
     3:55.56       41585756    ---   --   -----   gd83-09-13d1t05.wav
     6:45.45       71547884    ---   --   -----   gd83-09-13d1t06.wav
     7:01.28       74330300    ---   --   -----   gd83-09-13d1t07.wav
     7:24.19       78366332    ---   --   -----   gd83-09-13d1t08.wav
     4:26.33       47000060    ---   --   -----   gd83-09-13d1t09.wav
    15:34.14      164790572    ---   --   -----   gd83-09-13d2t01.wav
    16:27.03      174113900    ---   --   -----   gd83-09-13d2t02.wav
    12:07.33      128320460    ---   --   -----   gd83-09-13d2t03.wav
     6:30.67       68953628    ---   --   -----   gd83-09-13d2t04.wav
     1:16.36       13491116    ---   --   -----   gd83-09-13d3t01.wav
    10:09.55      107557004    ---   --   -----   gd83-09-13d3t02.wav
     6:20.01       67034396    ---   --   -----   gd83-09-13d3t03.wav
     8:15.57       87452108    ---   --   -----   gd83-09-13d3t04.wav
     8:38.54       91502252    ---   --   -----   gd83-09-13d3t05.wav
     5:47.43       61311980    ---   --   -----   gd83-09-13d3t06.wav
   157:59.69     1672258724 B                     (totals for 19 files)
Show Checksums
ffp
gd83-09-13d1t01.flac:77f701cbe07b91c7ddfc13653cacfa69
gd83-09-13d1t02.flac:85164764af73dd8e06b07402807c44fd
gd83-09-13d1t03.flac:b0baec0eaf140c149eea3177ca8bf996
gd83-09-13d1t04.flac:d0935e381d7f573414a6feaf8465bd2f
gd83-09-13d1t05.flac:59e117daf2a8c8ee07c5b268be87ca56
gd83-09-13d1t06.flac:323cb8ea82442539abb946d697d4145c
gd83-09-13d1t07.flac:368abef43624bdd629e6dd076ee8d11a
gd83-09-13d1t08.flac:6549861bdd3c3c42414817256057d755
gd83-09-13d1t09.flac:ade4c85eddd5cf4e9d4319d04b2ef961
gd83-09-13d2t01.flac:74cedfd6ebac22ed86e9120ffb22e45c
gd83-09-13d2t02.flac:8edcf47c9982aa985417fea08d39c766
gd83-09-13d2t03.flac:7cf2a2dac78604bc212a8a2776a3b37a
gd83-09-13d2t04.flac:058189b12d289a0a2dedb42add082f22
gd83-09-13d3t01.flac:51c341648322f83468cd1e7ca745d2e6
gd83-09-13d3t02.flac:c1bb8311c07ca9a6f727ab84e079100e
gd83-09-13d3t03.flac:10be7fe594e3a21e677e986f6d9d621f
gd83-09-13d3t04.flac:a9b2a79ed112afec71726999b3713240
gd83-09-13d3t05.flac:e0fd3b521d36e47e42a4e5220bf27ab2
gd83-09-13d3t06.flac:61bda612195af2ccf1aa3df1e73810fa
flac-md5
dbf7901a8bda3b0967adb9b04e6c5354 *gd83-09-13d1t01.flac
d7ef7ade2b2f0d8fb1d5c0d550b1025c *gd83-09-13d1t02.flac
26c0c6f931b0d59320b43590e185d21a *gd83-09-13d1t03.flac
37ced3bfa487e15d71fcc265d0bc4434 *gd83-09-13d1t04.flac
cacb57c7da9b1879852321c3bd7818de *gd83-09-13d1t05.flac
c9fcc29604afb1ff0b0635f7d53fedea *gd83-09-13d1t06.flac
1615ff2d4ee6da407e7fe1ab918495e3 *gd83-09-13d1t07.flac
f64e7c50cf991dab06508ab247cb5523 *gd83-09-13d1t08.flac
0fe56fc2627ccb305480986ee78a3188 *gd83-09-13d1t09.flac
b32e30e078d6b4da1388f430e4cd6003 *gd83-09-13d2t01.flac
835b9bbb23ae86b585d8dc80fb6aeb29 *gd83-09-13d2t02.flac
650d204a60e738807fc7ad6b6e96ca91 *gd83-09-13d2t03.flac
a5cfc19a0da96d7483bb2696d434a5dc *gd83-09-13d2t04.flac
e27b486dab80ae29da853d3f0e3987b5 *gd83-09-13d3t01.flac
5193356ecc4181be7610a2d1e97c0a7b *gd83-09-13d3t02.flac
f14436eced8d7ac9f97afbb7a898e818 *gd83-09-13d3t03.flac
79b5ab4f342632c0f27f34c4bdbbbd67 *gd83-09-13d3t04.flac
afa9cbc545275f82492532b91102e539 *gd83-09-13d3t05.flac
31021cfc54d68ecc6613a70f202c3411 *gd83-09-13d3t06.flac

Comments
Add Comment
Other Sources (comments)
ACM> ??> CDR; EAC>SHN by... (0) Recorded by The Weasel -... (0) flac16; Recording... (1) flac16/44.1 Master:... (0) flac24/48 Master:... (0)
Date User Comment
04/08/2007 keysareme Perfect recording :)
11/19/2010 charliemiller The emphasis was accidentally removed during the transfer giving it a very tinny sound. I have fixed that with a new transfer.