Browse Collections Artists Sources   Search Dates

Add Show    List Management    Help


Grateful Dead 06/30/95
Three Rivers Stadium, Pittsburgh, PA
Comments Add Comment    Source Collectors    Add to Collection    Add to Want List    History
Source # 83144 Other Sources
Entered by Matt Vernon
Checksums ffp , flac-md5
Disc Counts 2 / 3
Media Size
Date Circulated
Date Added
03/07/2007
03/08/2007
Source Summary flac16; Recording Info: Schoeps Mk4 (cardiod) > Schoeps KC5 active Cable > Schoeps CMC 6 mic body > Monster M1000 Jumper cable > Apogee AD1000 A / D Converter (UV16 enabled to use the UV22 process) S/PDIF Out > CASIO DA-R100 S/PDIF IN > DAT Master > TASCAM DA-20 (S/PDIF out) -> M-Audio Firewire Solo Interface -> Soundforge 8.0 Taped by Todd Evans & Adam Gross 
  Archive
Source Information - Download Text | Download Zip
Grateful Dead
June 30 1995
Pittsburgh, Pennsylvania
Three Rivers Stadium

MAD FOB DFC Digital Audience Recording
Taped by Todd Evans & Adam Gross

Recording Info:
Schoeps Mk4 (cardiod) > Schoeps KC5 active Cable > Schoeps CMC 6 mic body > Monster M1000 Jumper cable > Apogee AD1000 A / D Converter (UV16 enabled to use the UV22 process) S/PDIF Out > CASIO DA-R100 S/PDIF IN > DAT Master

Quote:
Note the Apogee AD1000 was new in the summer of 1995. This was first recording where I was able to use the converter. From the Apogee Literature: The AD-1000 resolved analog detail to the 20-bit level to capture accurately the subtle nuance of the analog input signal. The output was either 20-bit resolution or 16-bit. Apogeeļæ½s UV22 Super CD Encoding system could be utilized when working with 16-bit recording formats. UV22 captures the resolution and detail of the 20-bit conversion in a 16-bit word length; information that would normally be lost.

Transfer: DAT from the collection of Todd Evans - [email protected]
DAT > TASCAM DA-20 (S/PDIF out) -> M-Audio Firewire Solo Interface -> Soundforge 8.0
Transferred March 15, 2006

Editing Info- All editing and mastering by Jamie Waddell
Wavelab 6.0 using Ozone and L2 for dither
March 6, 2007
[email protected]

notes-
- a flawless recording, I didn't fix or patch a single second!
- incredible sound
- pouring rain plainly audible during beginning of Samba


a **GEMS** Production   www.shnflac.net



-Disc 1-
Set 1
1. tuning
2. Bucket
3. West L.A. Fadeaway
4. Take Me to the River
5. Candyman
6. Masterpiece
7. Bird Song
8. Promised Land

-Disc 2-
Set 2
1. tuning
2. Rain
3. Box of Rain
4. Samba in the Rain
5. Looks Like Rain>
6. Terrapin
7. Drums>

-Disc 3-
Set 2 continued
1. Space>
2. I Need a Miracle>
3. Standing on the Moon
4. crowd
5. E: Gloria
6. Taper Talk..ya gotta listen to this:)

flac fingerprint file generated by Trader's Little Helper
generated on March 7, 2007, at 9:06 am

gd1995-06-30.GEMS.d1t01.flac:d574e3a6c1c0977a9b1bf5be83197f41
gd1995-06-30.GEMS.d1t02.flac:81cec384315a2a631bd95c1c530b941a
gd1995-06-30.GEMS.d1t03.flac:43617cae34e7dbcbb68a0ae2f6949aa6
gd1995-06-30.GEMS.d1t04.flac:da01df02a676de2acd6e0ab6c4aae764
gd1995-06-30.GEMS.d1t05.flac:c02547c9cff97c24c94f81daa97fac59
gd1995-06-30.GEMS.d1t06.flac:a5ffde77fb8422f40d4f1207e91d9a42
gd1995-06-30.GEMS.d1t07.flac:87313236724e479aab8135f2fd0ccd92
gd1995-06-30.GEMS.d1t08.flac:cb460b798ca662cd048f3fab6739d70d
gd1995-06-30.GEMS.d2t01.flac:8acd93a649bc89f48778aa4f10b19c52
gd1995-06-30.GEMS.d2t02.flac:798b91afc691bf42030b7fcc9dbab569
gd1995-06-30.GEMS.d2t03.flac:fc79c27266ae07b2b8a12c7ddc5e2cff
gd1995-06-30.GEMS.d2t04.flac:ee3544e0149e0625e4137ea77de22382
gd1995-06-30.GEMS.d2t05.flac:3ab32fa49a009a6595a3c762f955d4c6
gd1995-06-30.GEMS.d2t06.flac:f1bf0e232269997e43202c2a303fb043
gd1995-06-30.GEMS.d2t07.flac:c94222224cf0f837160ce8b5dd8deedd
gd1995-06-30.GEMS.d3t01.flac:f5924047b4b77e4ae4d3e9163eee6a02
gd1995-06-30.GEMS.d3t02.flac:1c844da26cc36adb70ce283da245faab
gd1995-06-30.GEMS.d3t03.flac:de4e17cbab8d034001b7850536c525e8
gd1995-06-30.GEMS.d3t04.flac:db2f52daca2d66174ae15756444a20ca
gd1995-06-30.GEMS.d3t05.flac:a0a3fdc79625fc888c1c6ab9b5bae085
gd1995-06-30.GEMS.d3t06.flac:e341e84d4c1143776850ed4bae53892c

    length     expanded size   cdr  WAVE problems filename
     3:12.57       34002908    ---   --   ---xx   gd1995-06-30.GEMS.d1t01.flac
     6:12.24       65677292    ---   --   ---xx   gd1995-06-30.GEMS.d1t02.flac
     9:15.12       97930268    ---   --   ---xx   gd1995-06-30.GEMS.d1t03.flac
     4:59.27       52807148    ---   --   ---xx   gd1995-06-30.GEMS.d1t04.flac
     6:58.40       73829324    ---   --   ---xx   gd1995-06-30.GEMS.d1t05.flac
     5:39.08       59818460    ---   --   ---xx   gd1995-06-30.GEMS.d1t06.flac
    12:12.50      129242444    ---   --   ---xx   gd1995-06-30.GEMS.d1t07.flac
     4:50.58       51292460    ---   --   ---xx   gd1995-06-30.GEMS.d1t08.flac
     3:03.48       32394140    ---   --   ---xx   gd1995-06-30.GEMS.d2t01.flac
     5:37.52       59569148    ---   --   ---xx   gd1995-06-30.GEMS.d2t02.flac
     5:22.49       56916092    ---   --   ---xx   gd1995-06-30.GEMS.d2t03.flac
     6:32.28       69214700    ---   --   ---xx   gd1995-06-30.GEMS.d2t04.flac
     7:41.71       81487436    ---   --   ---xx   gd1995-06-30.GEMS.d2t05.flac
    18:50.25      199390844    ---   --   ---xx   gd1995-06-30.GEMS.d2t06.flac
    15:07.38      160084220    ---   --   ---xx   gd1995-06-30.GEMS.d2t07.flac
    13:58.62      147969068    ---   --   ---xx   gd1995-06-30.GEMS.d3t01.flac
     5:08.05       54343004    ---   --   ---xx   gd1995-06-30.GEMS.d3t02.flac
    10:07.36      107159516    ---   --   ---xx   gd1995-06-30.GEMS.d3t03.flac
     1:53.04       19942652    ---   --   ---xx   gd1995-06-30.GEMS.d3t04.flac
     6:42.58       71049260    ---   --   ---xx   gd1995-06-30.GEMS.d3t05.flac
     0:43.34        7665212    ---   --   ---xx   gd1995-06-30.GEMS.d3t06.flac
   154:10.36     1631785596 B                     (totals for 21 files, 0.5582 overall compression ratio)
Show Checksums
ffp
gd1995-06-30.GEMS.d1t01.flac:d574e3a6c1c0977a9b1bf5be83197f41
gd1995-06-30.GEMS.d1t02.flac:81cec384315a2a631bd95c1c530b941a
gd1995-06-30.GEMS.d1t03.flac:43617cae34e7dbcbb68a0ae2f6949aa6
gd1995-06-30.GEMS.d1t04.flac:da01df02a676de2acd6e0ab6c4aae764
gd1995-06-30.GEMS.d1t05.flac:c02547c9cff97c24c94f81daa97fac59
gd1995-06-30.GEMS.d1t06.flac:a5ffde77fb8422f40d4f1207e91d9a42
gd1995-06-30.GEMS.d1t07.flac:87313236724e479aab8135f2fd0ccd92
gd1995-06-30.GEMS.d1t08.flac:cb460b798ca662cd048f3fab6739d70d
gd1995-06-30.GEMS.d2t01.flac:8acd93a649bc89f48778aa4f10b19c52
gd1995-06-30.GEMS.d2t02.flac:798b91afc691bf42030b7fcc9dbab569
gd1995-06-30.GEMS.d2t03.flac:fc79c27266ae07b2b8a12c7ddc5e2cff
gd1995-06-30.GEMS.d2t04.flac:ee3544e0149e0625e4137ea77de22382
gd1995-06-30.GEMS.d2t05.flac:3ab32fa49a009a6595a3c762f955d4c6
gd1995-06-30.GEMS.d2t06.flac:f1bf0e232269997e43202c2a303fb043
gd1995-06-30.GEMS.d2t07.flac:c94222224cf0f837160ce8b5dd8deedd
gd1995-06-30.GEMS.d3t01.flac:f5924047b4b77e4ae4d3e9163eee6a02
gd1995-06-30.GEMS.d3t02.flac:1c844da26cc36adb70ce283da245faab
gd1995-06-30.GEMS.d3t03.flac:de4e17cbab8d034001b7850536c525e8
gd1995-06-30.GEMS.d3t04.flac:db2f52daca2d66174ae15756444a20ca
gd1995-06-30.GEMS.d3t05.flac:a0a3fdc79625fc888c1c6ab9b5bae085
gd1995-06-30.GEMS.d3t06.flac:e341e84d4c1143776850ed4bae53892c
flac-md5
c6f2eebd55205081cc7ac06e54fd29a6 *gd1995-06-30.gems.d1t01.flac
5757a89277ad40490cb9e094c2ea0082 *gd1995-06-30.gems.d1t02.flac
a28844333ead294275d72ad6b13cfeed *gd1995-06-30.gems.d1t03.flac
c54e5dfca7730a57147be605f9cf8dee *gd1995-06-30.gems.d1t04.flac
97cad9c4c069f806c92be3535cca961a *gd1995-06-30.gems.d1t05.flac
710e6a3feadb3f67e5251a5af5af4537 *gd1995-06-30.gems.d1t06.flac
1e5e5cfdc199714df91a0728d1c1bc50 *gd1995-06-30.gems.d1t07.flac
d65ba4cec0cb96c9b945e428a223ea37 *gd1995-06-30.gems.d1t08.flac
492e4034fafd394138dbec3c40854f16 *gd1995-06-30.gems.d2t01.flac
979fef1dc98b05a3693afecc75b5e0a7 *gd1995-06-30.gems.d2t02.flac
ffc56a60f4551e0dcd26860cfe596d45 *gd1995-06-30.gems.d2t03.flac
8553f52ebff0682fc3c5821253307951 *gd1995-06-30.gems.d2t04.flac
fce78e52607496c3f17001aa6301c562 *gd1995-06-30.gems.d2t05.flac
62d1f6f52bc1834331912d1ddef2499c *gd1995-06-30.gems.d2t06.flac
06ae66e42420a63a90651b94921ea6e0 *gd1995-06-30.gems.d2t07.flac
d869c9f5d63967e06276fa6f4a6c7355 *gd1995-06-30.gems.d3t01.flac
428537d9ebcb55502a40ccd76c5e6b51 *gd1995-06-30.gems.d3t02.flac
5483d658a59a1c71eaafc83ec7b63ae2 *gd1995-06-30.gems.d3t03.flac
9dec4d73e1e3d72381b9bd9dee678d1f *gd1995-06-30.gems.d3t04.flac
68afb7aca47935652ce946fb9efcc688 *gd1995-06-30.gems.d3t05.flac
e9a89e595c395402c1004cfa0efb413c *gd1995-06-30.gems.d3t06.flac

Comments
Add Comment
Other Sources (comments)
FOB (~26th row) Schoeps... (4) flac16/48; Source:... (0) flac16; Taper: Greg... (0) flac16; Schoeps... (1) flac16/48; Schoeps... (1)
Date User Comment