Browse Collections Artists Sources   Search Dates

Add Show    List Management    Help


Grateful Dead 11/20/73
Denver Coliseum, Denver, CO
Comments Add Comment    Source Collectors    Add to Collection    Add to Want List    History
Source # 83165 Other Sources
Entered by Matt Vernon
Checksums flac-md5 , ffp
Disc Counts 1 / 1
Media Size
Date Circulated
Date Added
03/09/2007
03/09/2007
Source Summary flac16; Partial set 2 matrix mix using Cary Wolfson AUD shnid=22879 and sbd shnid=1234 by Matt Vernon  
  Archive
Source Information - Download Text | Download Zip
Grateful Dead
Denver Coliseum
Denver, CO
November 20, 1973 [Tuesday]

Partial set 2 matrix mix

Sources:
A). Cary Wolfson AUD http://db.etree.org/shninfo_detail.php?shnid=22879
B). sbd http://db.etree.org/shninfo_detail.php?shnid=1234

Mix ratio: I adjusted the aud to be -2db down from a 1:1 mix).

01. Crowd
02. Truckin >
03. Bass and Drums >
04. The Other One >
05. Jam 1 >
06. The Other One >
07. The Other One Verse 1 >
08. Meltdown Jam >
09. Jam 2 >
10. Mind Left Body Jam >
11. Stella Blue

Notes -
1. This is another excellent 73 jam. It features all of your basic GD jam "food groups" - several melodic theme
jams, a spacey meltdown jam, in addition to the standard song material. Its 45 minutes of very engaging material
without any extraneous notes.
2. I did not patch either source (both of which have a single ~15-30 sec gap).  This allows you to hear the
different sources and compare them to the matrix.

Matt Vernon March 6, 2007

    length     expanded size   cdr  WAVE problems filename
     0:26.72        4755788    ---   --   ---xx   gd73-11-20matrixd3t01.flac
     9:10.28       97085900    ---   --   ---xx   gd73-11-20matrixd3t02.flac
     2:51.58       30300860    ---   --   ---xx   gd73-11-20matrixd3t03.flac
     4:21.43       46141580    ---   --   ---xx   gd73-11-20matrixd3t04.flac
     2:05.51       22169996    ---   --   ---xx   gd73-11-20matrixd3t05.flac
     3:21.55       35585804    ---   --   ---xx   gd73-11-20matrixd3t06.flac
     0:55.23        9756140    ---   --   ---xx   gd73-11-20matrixd3t07.flac
     5:42.46       60437036    ---   --   ---xx   gd73-11-20matrixd3t08.flac
     1:11.66       12679676    ---   --   ---xx   gd73-11-20matrixd3t09.flac
     2:50.45       30093884    ---   --   ---xx   gd73-11-20matrixd3t10.flac
     8:26.46       89366636    ---   --   ---xx   gd73-11-20matrixd3t11.flac
    41:25.08      438373300 B                     (totals for 11 files, 0.5730 overall compression ratio)

flac fingerprint

gd73-11-20matrixd3t01.flac:f5768e5cd0de7af20a02c0ffd32b415a
gd73-11-20matrixd3t02.flac:638f3edf4d2f317b69301061d9100f34
gd73-11-20matrixd3t03.flac:3f7c280a7a50becb0e181b25c04a938f
gd73-11-20matrixd3t04.flac:c872ebc3462a1927cf3ed54b7a057ccd
gd73-11-20matrixd3t05.flac:8ac72e16aa8539a3c8e6d99a4da7ed92
gd73-11-20matrixd3t06.flac:667d1b27122d154a0deb44916ea1a3ae
gd73-11-20matrixd3t07.flac:c44a2fd04239af34efa807b7c246186b
gd73-11-20matrixd3t08.flac:db781f4f9133c1fee86ba44f35d7d300
gd73-11-20matrixd3t09.flac:9dfb65e03984dc40704a8442198ed90b
gd73-11-20matrixd3t10.flac:eeb302dfe5df379250f855eb26e94783
gd73-11-20matrixd3t11.flac:80337bee6d21c1d44d65dbf4dec6ddb1

Show Checksums
flac-md5
46e359ba5b609299d164f7aad076a0ad *gd73-11-20matrixd3t01.flac
3253678beeeda0a631ddd634bb6b87a6 *gd73-11-20matrixd3t02.flac
8ace12a661ba8506b20ab6152b0ec342 *gd73-11-20matrixd3t03.flac
c0602a85b1b6c3f0001d11764c2769c3 *gd73-11-20matrixd3t04.flac
9ac9039d52cf422128eb41d48de9a6cc *gd73-11-20matrixd3t05.flac
4219f091391716cd76e78965b7663816 *gd73-11-20matrixd3t06.flac
185423bf8cb5d6b6a4aeecb6e27ce72a *gd73-11-20matrixd3t07.flac
d7bedf1e356b93909baee6acb1fd50f6 *gd73-11-20matrixd3t08.flac
3f37b859218c4f7e1a2253024e40094d *gd73-11-20matrixd3t09.flac
29ab306e2f1211c7d838728e7b46b8f2 *gd73-11-20matrixd3t10.flac
027c0e0fc66d790512b176246165851e *gd73-11-20matrixd3t11.flac
ffp
gd73-11-20matrixd3t01.flac:f5768e5cd0de7af20a02c0ffd32b415a
gd73-11-20matrixd3t02.flac:638f3edf4d2f317b69301061d9100f34
gd73-11-20matrixd3t03.flac:3f7c280a7a50becb0e181b25c04a938f
gd73-11-20matrixd3t04.flac:c872ebc3462a1927cf3ed54b7a057ccd
gd73-11-20matrixd3t05.flac:8ac72e16aa8539a3c8e6d99a4da7ed92
gd73-11-20matrixd3t06.flac:667d1b27122d154a0deb44916ea1a3ae
gd73-11-20matrixd3t07.flac:c44a2fd04239af34efa807b7c246186b
gd73-11-20matrixd3t08.flac:db781f4f9133c1fee86ba44f35d7d300
gd73-11-20matrixd3t09.flac:9dfb65e03984dc40704a8442198ed90b
gd73-11-20matrixd3t10.flac:eeb302dfe5df379250f855eb26e94783
gd73-11-20matrixd3t11.flac:80337bee6d21c1d44d65dbf4dec6ddb1

Comments
Add Comment
Other Sources (comments)
S:MR > DAT > CD > EAC >... (6) MAC (Taped by Cary Wolfson,... (0) flac16; main source:... (2) flac16; 2 Source... (0)
Date User Comment