Browse Collections Artists Sources   Search Dates

Add Show    List Management    Help


Grateful Dead 01/30/87
San Francisco Civic Auditorium, San Francisco, CA
Comments Add Comment    Source Collectors    Add to Collection    Add to Want List    History
Source # 83285 Other Sources
Entered by Matt Vernon
Checksums ffp , flac-md5
Disc Counts 2 / 3
Media Size
Date Circulated
Date Added
03/13/2007
03/13/2007
Source Summary flac16; Recording Info: SBD -> Cassette Master (Maxell MX90/Sony D5) Transfer Info: Cassette Master (Tascam 122mkII) -> Apogee MiniMe (24bit/48k) -> Samplitude Professional v8.01 -> FLAC/16 All Transfers and Mastering By Charlie Miller 
  Archive
Source Information - Download Text | Download Zip
Grateful Dead - January 30, 1987
Civic Center - San Francisco, CA

Recording Info:
SBD -> Cassette Master (Maxell MX90/Sony D5)

Transfer Info:
Cassette Master (Tascam 122mkII) -> Apogee MiniMe (24bit/48k) ->
Samplitude Professional v8.01 -> FLAC/16
(3 Discs Audio / 2 Discs FLAC)

All Transfers and Mastering By Charlie Miller
[email protected]
February 7, 2007

Patch Info:
Unknown AUD Source from LMA supplies:
Drums (3:33 - 3:41)

Notes:
-- Set 2 is seamless
-- Thanks to Paul Scotton and Joani Walker for the tapes

Set 1:
d1t01 - Tuning
d1t02 - Touch Of Grey
d1t03 - New Minglewood Blues
d1t04 - Candyman
d1t05 - Me And My Uncle ->
d1t06 - Mexicali Blues
d1t07 - When Push Comes To Shove
d1t08 - Beat It On Down The Line ->
d1t09 - The Promised Land ->
d1t10 - China Cat Sunflower ->
d1t11 - I Know You Rider

Set 2:
d2t01 - Tuning
d2t02 - Iko Iko ->
d2t03 - Man Smart (Woman Smarter)
d2t04 - Ship Of Fools
d2t05 - Estimated Prophet ->
d2t06 - Truckin' ->
d2t07 - Drums ->
d3t01 - Space ->
d3t02 - The Other One ->
d3t03 - Wharf Rat ->
d3t04 - Throwing Stones ->
d3t05 - Not Fade Away

Encore:
d3t06 - Not Fade Away ->
d3t07 - Brokedown Palace


SHNTOOL OUTPUT:
    length     expanded size   cdr  WAVE problems filename
     0:46.54        8241452    ---   --   -----   gd87-01-30d1t01.wav
     6:26.09       68111612    ---   --   -----   gd87-01-30d1t02.wav
     8:12.30       86859404    ---   --   -----   gd87-01-30d1t03.wav
     8:39.35       91633964    ---   --   -----   gd87-01-30d1t04.wav
     2:46.62       29428268    ---   --   -----   gd87-01-30d1t05.wav
     6:34.10       69525164    ---   --   -----   gd87-01-30d1t06.wav
     7:02.00       74440844    ---   --   -----   gd87-01-30d1t07.wav
     3:23.25       35868044    ---   --   -----   gd87-01-30d1t08.wav
     3:58.19       42027932    ---   --   -----   gd87-01-30d1t09.wav
     5:10.37       54771068    ---   --   -----   gd87-01-30d1t10.wav
     5:15.70       55730684    ---   --   -----   gd87-01-30d1t11.wav
     1:59.74       21165692    ---   --   -----   gd87-01-30d2t01.wav
     5:20.34       56528012    ---   --   -----   gd87-01-30d2t02.wav
     6:54.22       73081388    ---   --   -----   gd87-01-30d2t03.wav
     9:14.33       97803260    ---   --   -----   gd87-01-30d2t04.wav
    10:50.02      114664748    ---   --   -----   gd87-01-30d2t05.wav
     8:56.65       94703324    ---   --   -----   gd87-01-30d2t06.wav
    10:21.64      109694972    ---   --   -----   gd87-01-30d2t07.wav
     2:21.15       24907724    ---   --   -----   gd87-01-30d3t01.wav
     8:06.73       85902140    ---   --   -----   gd87-01-30d3t02.wav
     8:57.58       94863260    ---   --   -----   gd87-01-30d3t03.wav
     8:31.50       90258044    ---   --   -----   gd87-01-30d3t04.wav
     7:30.73       79551740    ---   --   -----   gd87-01-30d3t05.wav
     1:57.65       20791724    ---   --   -----   gd87-01-30d3t06.wav
     6:20.66       67187276    ---   --   -----   gd87-01-30d3t07.wav
   155:40.70     1647741740 B                     (totals for 25 files)
Show Checksums
ffp
gd87-01-30d1t01.flac:c52d7d0e65bdbecd56b0b47aff07d627
gd87-01-30d1t02.flac:44b6c810c3638a322535f5a0ae980c13
gd87-01-30d1t03.flac:afd47201bfefb97d99ec38d4cf827d45
gd87-01-30d1t04.flac:e5af38d3011f11648cc4277149c28531
gd87-01-30d1t05.flac:32236acc3fb60e6d7b3cc05bee7a694d
gd87-01-30d1t06.flac:f58b5cf8759dc1d8e7729fc1cbc21e23
gd87-01-30d1t07.flac:49a70e8025d80484ee8dd1afc7cc5636
gd87-01-30d1t08.flac:ca0ad1507db6854ab7295f835fc4c195
gd87-01-30d1t09.flac:419325863d96fb179fc765adef8c0f15
gd87-01-30d1t10.flac:7b13364754f2a4a4bb74299799fa0fe1
gd87-01-30d1t11.flac:0f12769dffcb92435353d7bba5cad9dd
gd87-01-30d2t01.flac:85438e04cc3c197b0de187aeffebfd11
gd87-01-30d2t02.flac:3bdfeb4352f3b59dc63e0bd8f496fa60
gd87-01-30d2t03.flac:12151d87825642618f5623676d217e0e
gd87-01-30d2t04.flac:5722d4562aaaab656f177ce23b0f2ed8
gd87-01-30d2t05.flac:02070414455f637857b88548ed50ba66
gd87-01-30d2t06.flac:1d61701e8d33d4db4c050c6ed9a8d99e
gd87-01-30d2t07.flac:906195fe39f109a44c0bb1f5547971cd
gd87-01-30d3t01.flac:f8bcfe9623e16b92b31552c5b3116903
gd87-01-30d3t02.flac:a92049d1db3ea64ddf8ddab79b6fbad6
gd87-01-30d3t03.flac:fe0f1497584bc6e3afef95126bef3c0a
gd87-01-30d3t04.flac:fe6c347f9033ba17d7e0bbdc1944cd55
gd87-01-30d3t05.flac:a3f8ad955007cd2c614a7b6c3a11045b
gd87-01-30d3t06.flac:c5a0a66035bba86965d587815dfb69d9
gd87-01-30d3t07.flac:e341c16d568b5b9203ceeba149e80296
flac-md5
3bc7bd8bed40e02f1dea2fc1e814ff8c *gd87-01-30d1t01.flac
19dd9079360e4a35f96f89b76d7d17a1 *gd87-01-30d1t02.flac
5845952baeba9b32f428b1a5825f190f *gd87-01-30d1t03.flac
13408d75939620fe8aa03aa18a1d48c1 *gd87-01-30d1t04.flac
1be1a13466477ee4bec2fce1ef8a2bb2 *gd87-01-30d1t05.flac
00599143e91bb911289b48410b59edd0 *gd87-01-30d1t06.flac
3ccd252ceed5863ef93d9059c00ffa19 *gd87-01-30d1t07.flac
92e0e377adcbe7d92cfb5fc01a269078 *gd87-01-30d1t08.flac
025665596349312c9c48fdec7fa34da8 *gd87-01-30d1t09.flac
e5e9320b6e5fb6f6e1a6f1b3c03adeea *gd87-01-30d1t10.flac
7c34fa92237e02abfdea11269e1a6be8 *gd87-01-30d1t11.flac
f3d5eaf361365b1eec6947f0a72749ca *gd87-01-30d2t01.flac
7153829f2c0c62739974553bf7c24c28 *gd87-01-30d2t02.flac
913a9112df316ed770d9bff1b8a2b4bc *gd87-01-30d2t03.flac
91abd7549bfc95526f6ac1cc652c5796 *gd87-01-30d2t04.flac
ce4fbedbbedaa277e0ef5132236c2899 *gd87-01-30d2t05.flac
fba38412f151b520f31dd69651d056bd *gd87-01-30d2t06.flac
d13c6a76fae88d5fe123330c4cdbe426 *gd87-01-30d2t07.flac
79d94a4d7deb7c5e6befcb058eee7a18 *gd87-01-30d3t01.flac
3fae4c6c5846d8104a926d4be2e2c030 *gd87-01-30d3t02.flac
36c8440b0198adbbea64d493f6563729 *gd87-01-30d3t03.flac
2b700f0b772d10bb9238984ab2836f9f *gd87-01-30d3t04.flac
b39b809af1aebd0d4be6968c653fd30e *gd87-01-30d3t05.flac
3f9022d719e9eb0a742180af37e065e7 *gd87-01-30d3t06.flac
3ef064aa10b2c188765e2af25a278182 *gd87-01-30d3t07.flac

Comments
Add Comment
Other Sources (comments)
AUD>DAT>CDR; via Easy Jim;... (1) SBD > MC > C > DAT > CD >... (1) flac16; Source:... (0) flac16; Source:... (0) flac24; Recording... (0) flac16; Recording... (0) flac24; Recording... (0) flac16; Recording... (0) flac16; Source Info:... (0)
Date User Comment