Browse Collections Artists Sources   Search Dates

Add Show    List Management    Help


Grateful Dead 01/28/87
San Francisco Civic Auditorium, San Francisco, CA
Comments Add Comment    Source Collectors    Add to Collection    Add to Want List    History
Source # 83286 Other Sources
Entered by Matt Vernon
Checksums ffp , flac-md5
Disc Counts 2 / 3
Media Size
Date Circulated
Date Added
03/13/2007
03/13/2007
Source Summary flac16; Recording Info: SBD -> Cassette Master (Maxell MX90/Sony D5) Transfer Info: Cassette Master (Tascam 122mkII) -> Apogee MiniMe (24bit/48k) -> Samplitude Professional v8.01 -> FLAC/16 All Transfers and Mastering By Charlie Miller 
  Archive
Source Information - Download Text | Download Zip
Grateful Dead - January 28, 1987
Civic Center - San Francisco, CA

Recording Info:
SBD -> Cassette Master (Maxell MX90/Sony D5)

Transfer Info:
Cassette Master (Tascam 122mkII) -> Apogee MiniMe (24bit/48k) ->
Samplitude Professional v8.01 -> FLAC/16
(3 Discs Audio / 2 Discs FLAC)

All Transfers and Mastering By Charlie Miller
[email protected]
January 30, 2007

Notes:
-- 2nd Set and Encore can be re-joined seamlessly
-- Thanks to Paul Scotton and Joani Walker for the tapes
-- 90 seconds of dead air removed from 1st Set

Set 1:
d1t01 - Tuning
d1t02 - Shakedown Street
d1t03 - Get Back
d1t04 - Peggy-O
d1t05 - Walkin' Blues
d1t06 - It Must Have Been The Roses
d1t07 - It's All Over Now
d1t08 - Row Jimmy
d1t09 - My Brother Esau
d1t10 - Bird Song
d1t11 - Jack Straw

Set 2:
d2t01 - Tuning
d2t02 - When Push Comes To Shove ->
d2t03 - Samson And Delilah
d2t04 - Black Muddy River ->
d2t05 - He's Gone ->
d2t06 - Spoonful ->
d2t07 - Drums ->
d2t08 - Jam ->
d2t09 - Eyes Of The World ->
d2t10 - Black Peter ->
d2t11 - Around And Around ->
d2t12 - Sugar Magnolia

Encore:
d3t01 - Crowd/Tuning
d3t02 - U.S. Blues


SHNTOOL OUTPUT:
    length     expanded size   cdr  WAVE problems filename
     0:47.57        8424908    ---   --   -----   gd87-01-28d1t01.wav
    13:22.01      141475196    ---   --   -----   gd87-01-28d1t02.wav
     5:55.31       62694956    ---   --   -----   gd87-01-28d1t03.wav
     6:01.68       63840380    ---   --   -----   gd87-01-28d1t04.wav
     6:08.43       65016380    ---   --   -----   gd87-01-28d1t05.wav
     7:35.00       80262044    ---   --   -----   gd87-01-28d1t06.wav
     6:50.74       72498092    ---   --   -----   gd87-01-28d1t07.wav
    11:36.54      122901452    ---   --   -----   gd87-01-28d1t08.wav
     5:03.46       53557436    ---   --   -----   gd87-01-28d1t09.wav
    11:04.45      117235484    ---   --   -----   gd87-01-28d1t10.wav
     5:24.28       57219500    ---   --   -----   gd87-01-28d1t11.wav
     1:12.06       12714956    ---   --   -----   gd87-01-28d2t01.wav
     4:26.25       46981244    ---   --   -----   gd87-01-28d2t02.wav
     7:14.03       76564700    ---   --   -----   gd87-01-28d2t03.wav
     6:02.67       64014428    ---   --   -----   gd87-01-28d2t04.wav
    11:13.58      118853660    ---   --   -----   gd87-01-28d2t05.wav
     6:30.73       68967740    ---   --   -----   gd87-01-28d2t06.wav
     9:41.44      102591932    ---   --   -----   gd87-01-28d2t07.wav
     1:36.31       17007356    ---   --   -----   gd87-01-28d2t08.wav
     7:18.41       77359676    ---   --   -----   gd87-01-28d2t09.wav
    10:05.32      106797308    ---   --   -----   gd87-01-28d2t10.wav
     4:36.12       48714668    ---   --   -----   gd87-01-28d2t11.wav
     9:05.41       96234476    ---   --   -----   gd87-01-28d2t12.wav
     0:27.25        4821644    ---   --   -----   gd87-01-28d3t01.wav
     5:17.31       55991756    ---   --   -----   gd87-01-28d3t02.wav
   164:39.36     1742741372 B                     (totals for 25 files)
Show Checksums
ffp
gd87-01-28d1t01.flac:d46f4ff320d925a13535d842bfd96a98
gd87-01-28d1t02.flac:6e25669e7e3b26569f3c74e0ab992f86
gd87-01-28d1t03.flac:c36e76e38008c1ba529e93940caa58d5
gd87-01-28d1t04.flac:4b36bd59b7abd0a06b07749e133441d7
gd87-01-28d1t05.flac:9a2c52c2c559ee7eb5071b9ad0a58e9a
gd87-01-28d1t06.flac:81385dcdd61b5a285f5fc175c86a8fe1
gd87-01-28d1t07.flac:7ed02a0387284cbd0bbe425eefbf4687
gd87-01-28d1t08.flac:ab4a655ca01317a8d3a29c272b92f2eb
gd87-01-28d1t09.flac:e5f87cf35c8d71b8749c51c56e32d2b6
gd87-01-28d1t10.flac:13603ea0ceccd883653de7dcf279549c
gd87-01-28d1t11.flac:f3e50883109c4ad3177bcc0c847917c6
gd87-01-28d2t01.flac:58c8dafba7a6dd5d56171cc5eae3c2d5
gd87-01-28d2t02.flac:4cb6a92ea033097b4440b2722a6a5efd
gd87-01-28d2t03.flac:e1a2cc690d9c7c864d750d37f236d87c
gd87-01-28d2t04.flac:937f4f178f358e53e6c8833007d865c1
gd87-01-28d2t05.flac:9bc7dd01eb85c98df4dc0c3249702125
gd87-01-28d2t06.flac:daa2cac1e96f3b9bb7e36b99eff6c11d
gd87-01-28d2t07.flac:24a9a061b5d4e8994added0f4cb98641
gd87-01-28d2t08.flac:004175167dce2cf1cc1eb85dce0fe1a1
gd87-01-28d2t09.flac:1ddcae256b8f57c1c295bd3c356d25ab
gd87-01-28d2t10.flac:d1aa56428b4e8f76d8a425ef714553b0
gd87-01-28d2t11.flac:17834f745a06e3a31dddbdff927464ea
gd87-01-28d2t12.flac:85906e1de8e1abb3846c54a215a252e6
gd87-01-28d3t01.flac:44f78f48d923556c221e0caa5e1a8dbf
gd87-01-28d3t02.flac:37cb03ee341a623da2fb0967b4acb039
flac-md5
8f39dba65c91bf172d7145ad8356dca8 *gd87-01-28d1t01.flac
207533da67d1fe1b53c26e8222311228 *gd87-01-28d1t02.flac
200c11601a743ff2f4fe0fd69d6a98b3 *gd87-01-28d1t03.flac
941966f38fb58e00f7bc0f127df2d72f *gd87-01-28d1t04.flac
266197cfff8188b5d398e06aeee5574e *gd87-01-28d1t05.flac
59146058ab20c7de2a4460a06b791087 *gd87-01-28d1t06.flac
9dca0ef2a758a50728cb4a2c5fbc79ef *gd87-01-28d1t07.flac
bb0f7d77ba954d53547192a486a96c75 *gd87-01-28d1t08.flac
0d5dfef6a7c022e25f06e9e1d4e91a25 *gd87-01-28d1t09.flac
b8248956af590ed1e38cfea4b42412f8 *gd87-01-28d1t10.flac
95c7be76e6786d839c74a2adff20d49e *gd87-01-28d1t11.flac
bcfce7ffa2ea719782565808729a7b44 *gd87-01-28d2t01.flac
5b3b44f1a03320dd8214934bed4bc257 *gd87-01-28d2t02.flac
1fdf8d10a6bd49b7bc5501b7194b6216 *gd87-01-28d2t03.flac
97eafce45cc7dc9dc58caed8a413e0a8 *gd87-01-28d2t04.flac
d1cd82184eca0ef9b7f4d53fd389b1f1 *gd87-01-28d2t05.flac
420db1c6860f324a645c59a5886ab1c6 *gd87-01-28d2t06.flac
2e1de9abafab15da1b8f97948075a3e9 *gd87-01-28d2t07.flac
a64cef9951e7d9f9a89f231745160559 *gd87-01-28d2t08.flac
8e351a7ab8844585d66db9dd33473757 *gd87-01-28d2t09.flac
ddeb539e00063b54cbee9acb0a59a91a *gd87-01-28d2t10.flac
ab974e2f5a809a3341a68795d5255833 *gd87-01-28d2t11.flac
95d806a0a145d87b1e283add81c62164 *gd87-01-28d2t12.flac
579eea1ed4cc6b6682c2fc35e49713ed *gd87-01-28d3t01.flac
66010db2197e1be05c1740032e17650e *gd87-01-28d3t02.flac

Comments
Add Comment
Other Sources (comments)
Source: SBDcm(Healy... (7) flac16; Source:... (0) flac16; OTS AUD: 2x... (0) flac24; OTS AUD: 2x... (0) flac16; Matrix 2... (0) DTS-Audio-CD 5.1... (0) flac16/48kHz; 5.1... (0) flac24; lineage:... (0) flac24; Recording... (2) flac16; Recording... (0)
Date User Comment