Browse Collections Artists Sources   Search Dates

Add Show    List Management    Help


Grateful Dead 10/11/89
Meadowlands Arena, East Rutherford, NJ
Comments Add Comment    Source Collectors    Add to Collection    Add to Want List    History
Source # 83292 Other Sources
Entered by Matt Vernon
Checksums ffp , flac-md5
Disc Counts 2 / 3
Media Size
Date Circulated
Date Added
03/13/2007
03/13/2007
Source Summary flac16; Recording Info: SBD -> Cassette Master (TDK MA-XG90) Transfer Info: Cassette Master (Tascam 122mkII) -> Apogee MiniMe (24bit/48k) -> Samplitude Professional v8.01 -> FLAC/16 All Transfers and Mastering By Charlie Miller 
  Archive
Source Information - Download Text | Download Zip
Grateful Dead - October 11, 1989
Meadowlands Arena - East Rutherford, NJ

Recording Info:
SBD -> Cassette Master (TDK MA-XG90)

Transfer Info:
Cassette Master (Tascam 122mkII) -> Apogee MiniMe (24bit/48k) ->
Samplitude Professional v8.01 -> FLAC/16
(3 Discs Audio / 2 Discs FLAC)

All Transfers and Mastering By Charlie Miller
[email protected]
January 28, 2007

Patch Info:
(2) Nakamichi 300/CP4 + (2) Nakamichi 100/CP1 -> Cassette Master -> CD
Drums (4:36 - 4:54)

Notes:
-- Set 2 is seamless
-- Thanks to Paul Scotton and Joani Walker for the tapes
-- Patch source recorded By Steve Cherson

Set 1:
d1t01 - Tuning
d1t02 - Let The Good Times Roll ->
d1t03 - Bertha ->
d1t04 - Greatest Story Ever Told
d1t05 - Loser
d1t06 - When I Paint My Masterpiece
d1t07 - Althea
d1t08 - Cassidy
d1t09 - Just A Little Light
d1t10 - Don't Ease Me In

Set 2:
d2t01 - China Cat Sunflower ->
d2t02 - I Know You Rider
d2t03 - Estimated Prophet ->
d2t04 - Terrapin Station ->
d2t05 - Drums ->
d3t01 - Space ->
d3t02 - The Wheel ->
d3t03 - All Along The Watchtower ->
d3t04 - Black Peter ->
d3t05 - Turn On Your Lovelight

Encore:
d3t06 - It's All Over Now, Baby Blue


SHNTOOL OUTPUT:
    length     expanded size   cdr  WAVE problems filename
     3:03.64       32431772    ---   --   -----   gd89-10-11d1t01.wav
     3:53.09       41122412    ---   --   -----   gd89-10-11d1t02.wav
     6:56.02       73387148    ---   --   -----   gd89-10-11d1t03.wav
     5:44.05       60693404    ---   --   -----   gd89-10-11d1t04.wav
     8:57.55       94856204    ---   --   -----   gd89-10-11d1t05.wav
     7:36.39       80530172    ---   --   -----   gd89-10-11d1t06.wav
     9:12.13       97403420    ---   --   -----   gd89-10-11d1t07.wav
    10:37.57      112500908    ---   --   -----   gd89-10-11d1t08.wav
     5:24.63       57301820    ---   --   -----   gd89-10-11d1t09.wav
     3:34.74       37923692    ---   --   -----   gd89-10-11d1t10.wav
     9:07.04       96500252    ---   --   -----   gd89-10-11d2t01.wav
     7:28.23       79081340    ---   --   -----   gd89-10-11d2t02.wav
    11:13.64      118867772    ---   --   -----   gd89-10-11d2t03.wav
    15:01.40      159030524    ---   --   -----   gd89-10-11d2t04.wav
    10:05.41      106818476    ---   --   -----   gd89-10-11d2t05.wav
    10:19.52      109313948    ---   --   -----   gd89-10-11d3t01.wav
     6:42.57       71046908    ---   --   -----   gd89-10-11d3t02.wav
     6:34.26       69562796    ---   --   -----   gd89-10-11d3t03.wav
     9:30.39      100639772    ---   --   -----   gd89-10-11d3t04.wav
    10:16.00      108662444    ---   --   -----   gd89-10-11d3t05.wav
     7:44.16       81887276    ---   --   -----   gd89-10-11d3t06.wav
   169:04.68     1789562460 B                     (totals for 21 files)
Show Checksums
ffp
gd89-10-11d1t01.flac:d07a434ce23802993480a39d3e6fc0d5
gd89-10-11d1t02.flac:0794b08624c37265a9fc10ef361e7bb1
gd89-10-11d1t03.flac:e906c3548375e0e352973037905f9ebb
gd89-10-11d1t04.flac:d4431dd8b7ca0c23938bccf093d0f19c
gd89-10-11d1t05.flac:ec447ffdf5af229a0e1edc2435f17fc9
gd89-10-11d1t06.flac:0a2c0d19c98894d3dae0417aaac55bc1
gd89-10-11d1t07.flac:ec8ae5ead97a827ca9111f0a43a852c6
gd89-10-11d1t08.flac:01eee3bbd266ad1695d6e46a9c794331
gd89-10-11d1t09.flac:5e994fd2e3f44df5f6f79312874eebf2
gd89-10-11d1t10.flac:4cc5d250a7523b4b6a53461beb423820
gd89-10-11d2t01.flac:29dd9999307e4ea76de7d2abc51df8e5
gd89-10-11d2t02.flac:15c433865ccb3d8cab9aad788357d23f
gd89-10-11d2t03.flac:defbc40e35d7bffd8ecf64cc3340e860
gd89-10-11d2t04.flac:888bec0c8ae668949f0f9fcae9aa4505
gd89-10-11d2t05.flac:4855f130fda721143ce48e3937b98e69
gd89-10-11d3t01.flac:d81b9a70c9918988536189abae5430dd
gd89-10-11d3t02.flac:7b48b0f3b2f758b3245d615e22f0d2cc
gd89-10-11d3t03.flac:0c428dca99c9bd50b31989772c924359
gd89-10-11d3t04.flac:2e08aebc9d82b20baad4a0c2d68a57b6
gd89-10-11d3t05.flac:085f89145d5b8be1a6db20c58d1afe80
gd89-10-11d3t06.flac:7f38ff52f20ce167a898c1cb4cfcbdca
flac-md5
94f45977d337e78bb891ec6cc21c3372 *gd89-10-11d1t01.flac
b7097c29430df5a896df0ba41dde458f *gd89-10-11d1t02.flac
dcb3b014507685efaeb87700cce88d21 *gd89-10-11d1t03.flac
2573e3ef8f7e47908005e980a04a1159 *gd89-10-11d1t04.flac
f7b19230f9442431188a75867b20a0b5 *gd89-10-11d1t05.flac
a6a80395f021c0625a7899491bb7a2b4 *gd89-10-11d1t06.flac
668bc80b51c5627569c6dcd1d9feabeb *gd89-10-11d1t07.flac
3337fb9d59d84064e8f345962d5fa5d3 *gd89-10-11d1t08.flac
ea6d99550125384ec6d982edf4cb4908 *gd89-10-11d1t09.flac
446f6e20398b32d257746bb95bb74a0b *gd89-10-11d1t10.flac
3a845ebdb76ad06ca6c6754bf457d930 *gd89-10-11d2t01.flac
ea9ad1049e49e4a414d3e49d1921b42a *gd89-10-11d2t02.flac
14811fe73044ad741587d2fc46d59c96 *gd89-10-11d2t03.flac
f5732344733bab623549295a0675d1f8 *gd89-10-11d2t04.flac
b63a50d648f371dfe4904cdc46c02ff2 *gd89-10-11d2t05.flac
40205d1efb4e5c80169d1fd971d2dc9f *gd89-10-11d3t01.flac
12d1d649e3c5f6b2659b8d21b670daea *gd89-10-11d3t02.flac
f71b5792fa659736b08d5b0e200a4fa6 *gd89-10-11d3t03.flac
58a2ddbb752ca992702c3e2c2149f250 *gd89-10-11d3t04.flac
9c18defb4c3cbb080e7f190b8e7c4e3b *gd89-10-11d3t05.flac
57bb1a0808fb09edb54559fc590092a7 *gd89-10-11d3t06.flac

Comments
Add Comment
Other Sources (comments)
Master Soundboard DAT >... (6) Sbd> Cas(m)> Dat> ZA2/PC>... (0) flac16; AUD:... (0) flac16; matrix of... (0) flac16; Taper: M.... (0) flac24; Source:... (0) flac16/48kHz;... (0)
Date User Comment