Browse Collections Artists Sources   Search Dates

Add Show    List Management    Help


Solar Circus 02/02/93
Joker's Pub, Harrisonburg, VA
Comments Add Comment    Source Collectors    Add to Collection    Add to Want List    History
Source # 83311 Other Sources
Entered by
Checksums ffp-all , md5-all
Disc Counts 2 / 2
Media Size
Date Circulated
Date Added
01/01/2007
03/14/2007
Source Summary SBD>MC>Dynaco PAS 3X>Soundforge>CDWav>Flac 
Source Information - Download Text | Download Zip
Solar Circus
Joker's Pub
Harrisonburg, VA
2/2/93

SBD>MC>Dynaco PAS 3X>Soundforge>CDWav>Flac

Cassette masters recorded on a Sony WM-D3.
Set 1 Maxell XLII
Set2 Maxell XLIIS

Master recording & transfer by Gary Knight (DynacoST70 on Dime)


Set 1
All Here Together
Stems & Seed
My Sisters & Brothers
Come The Daybreak
Three Bells
Minglewood Blues
So Many Times
Lie
Twilight Dance
Just My Imagination


Set 2
Festival
Be Just Fine
Let It Go *
No Woman, No Cry
Shades Of Blue
Girl From The Other Side  
* Disc 3 *
Dark Star >
Sugar Magnolia
Moving >
One More Time Around
Late In The Evening
E: St. Stephen >
Fortune Teller\\


Notes:
very beginning of "All Here Together" clipped
Tape runs out on Girl From The Other Side. Not much missing. Dark Star starts cold after tape flip.
Tape runs out on Fortune Teller
Let It Go is dedicated to Dan Millman


Education is when you read the fine print.
Experience is what you get if you don't.
-Pete Seeger

    length     expanded size   cdr  WAVE problems filename
     5:14.57       55523708    ---   --   ---xx   SC93 02 02 1t01.flac
     5:38.54       59750252    ---   --   ---xx   SC93 02 02 1t02.flac
     5:44.56       60813356    ---   --   ---xx   SC93 02 02 1t03.flac
     8:20.00       88200044    ---   --   ---xx   SC93 02 02 1t04.flac
     4:43.74       50095292    ---   --   ---xx   SC93 02 02 1t05.flac
     5:46.22       61086188    ---   --   ---xx   SC93 02 02 1t06.flac
     7:18.17       77303228    ---   --   ---xx   SC93 02 02 1t07.flac
     5:16.12       55770668    ---   --   ---xx   SC93 02 02 1t08.flac
     9:41.00      102488444    ---   --   ---xx   SC93 02 02 1t09.flac
     7:39.41       81062936    -b-   --   ---xx   SC93 02 02 1t10.flac
    10:12.29      108025052    ---   --   ---xx   SC93 02 02 2t01.flac
     5:54.57       62579708    ---   --   ---xx   SC93 02 02 2t02.flac
     8:04.04       85387052    ---   --   ---xx   SC93 02 02 2t03.flac
     5:22.73       56972540    ---   --   ---xx   SC93 02 02 2t04.flac
     5:59.07       63344108    ---   --   ---xx   SC93 02 02 2t05.flac
    12:35.44      133285532    ---   --   ---xx   SC93 02 02 2t06.flac
     6:19.48       66968540    ---   --   ---xx   SC93 02 02 2t07.flac
     7:34.12       80113868    ---   --   ---xx   SC93 02 02 2t08.flac
     4:46.09       50471612    ---   --   ---xx   SC93 02 02 2t09.flac
     9:44.08      103036460    ---   --   ---xx   SC93 02 02 2t10.flac
     7:35.37       80349068    ---   --   ---xx   SC93 02 02 2t11.flac
     7:25.72       78667388    ---   --   ---xx   SC93 02 02 2t12.flac
     4:46.12       50478620    -b-   --   ---xx   SC93 02 02 2t13.flac
   161:43.69     1711773664 B                     (totals for 23 files, 0.5732 overall compression ratio)
Show Checksums
ffp-all
SC93 02 02 1t01.flac:a33afa8f67db2062f2709bfa5186918f
SC93 02 02 1t02.flac:6973ea098174755714e23272d4d6baf4
SC93 02 02 1t03.flac:49ad231a9c399d5139cac4274472c4b3
SC93 02 02 1t04.flac:01ffd5711e99a993d044ac8601abdde3
SC93 02 02 1t05.flac:dfa0e6c4969a846b4a4eb00456c35473
SC93 02 02 1t06.flac:789d3f6a51a25774119a727a79bdfb62
SC93 02 02 1t07.flac:7810fc54b4ef421f287c6e6d16e5299c
SC93 02 02 1t08.flac:dd6f1c7a8de5bec65749d074e6b7eada
SC93 02 02 1t09.flac:21eb8212d8e0d0faff70fceaee03866f
SC93 02 02 1t10.flac:ecf6690e4f09f094a4ea5c233fedbc54
SC93 02 02 2t01.flac:0f1df19bdfdf110bbef5c853e6f4bb47
SC93 02 02 2t02.flac:78a17c9439d13b60154c10e6a8c63ebc
SC93 02 02 2t03.flac:a0ea24baf98e57be29590a228d690f14
SC93 02 02 2t04.flac:c76933bc871c828c10c81673fb551d6e
SC93 02 02 2t05.flac:c5de62b3984ca40548e4512351568867
SC93 02 02 2t06.flac:b0183a1b91ae46aa9ccc4fd89d00cf7d
SC93 02 02 2t07.flac:158311b5e38d422c55ccf4324751d55d
SC93 02 02 2t08.flac:d57dee5c57736e5f09010fb077bb34d6
SC93 02 02 2t09.flac:ecadf8163b9faf151b5cf0368d11b403
SC93 02 02 2t10.flac:d99a853663e6250422d54f01f6bd908b
SC93 02 02 2t11.flac:0a35706401359054d388e0be14a4b345
SC93 02 02 2t12.flac:60e0bcac321131a238814e6d8de8b61a
SC93 02 02 2t13.flac:cd3b5d4b54ee33ee691b5d0d16e66ed8
md5-all
4276cc32869e16358cd27ac7953d8656 *SC93 02 02 1t01.flac
c5c04b13a39b9e97956d8bc4e6285bd2 *SC93 02 02 1t02.flac
e4809eedb991f0ce0c4b346ea63c1bd3 *SC93 02 02 1t03.flac
0255a54cc105c08a6d68c45560ad9922 *SC93 02 02 1t04.flac
1bb0375551a91045ec5520e504cc7cf7 *SC93 02 02 1t05.flac
52f5a13c1c90c45296caf5cbae096367 *SC93 02 02 1t06.flac
e67675ffa95c24e8c186e70f88b38fe8 *SC93 02 02 1t07.flac
4012b390b15e7b0d0c1c8004224f36a8 *SC93 02 02 1t08.flac
8374831216d91a39f28894d2c5e3a4bb *SC93 02 02 1t09.flac
a988c5ef8c83e657228192de9d23768b *SC93 02 02 1t10.flac
21602b65dd958fdb1bf8ebc6b12db9d9 *SC93 02 02 2t01.flac
7356d8cc29e3a38d3c393e8f1d4da3f7 *SC93 02 02 2t02.flac
8d2702c5a2aaab1f259a75a49d1404a8 *SC93 02 02 2t03.flac
0aa99b51ae09e4a798e98a3e2db24340 *SC93 02 02 2t04.flac
5a304b2bec433666f7f2de1c47c53a0b *SC93 02 02 2t05.flac
0734ff5c5a9e0368afd4625f9615cc29 *SC93 02 02 2t06.flac
03b1bf2688e41febc8942a48944fe3dc *SC93 02 02 2t07.flac
b7bb192cd236bb5909a405279c910b8a *SC93 02 02 2t08.flac
77d436816d1b4d206cf57ce14d757574 *SC93 02 02 2t09.flac
638a3d33886086f5e0cecdbc3f9efe22 *SC93 02 02 2t10.flac
27a91ebc92a341985253dc4e9b0a2434 *SC93 02 02 2t11.flac
05aa8b4cff5ab7e87f3afded3e2bbcec *SC93 02 02 2t12.flac
e177d7549df064704eefe53b7b24e68f *SC93 02 02 2t13.flac

Comments
Add Comment
Date User Comment