Browse Collections Artists Sources   Search Dates

Add Show    List Management    Help


Grateful Dead 10/20/89
The Spectrum, Philadelphia, PA
Comments Add Comment    Source Collectors    Add to Collection    Add to Want List    History
Source # 83317 Other Sources
Entered by Matt Vernon
Checksums ffp , flac-md5
Disc Counts 2 / 3
Media Size
Date Circulated
Date Added
03/14/2007
03/15/2007
Source Summary flac16; Recording Info: SBD -> Cassette Master (TDK MA-XG90) Transfer Info: Cassette Master (Tascam 122mkII) -> Apogee MiniMe (24bit/48k) -> Samplitude Professional v8.01 -> FLAC/16 All Transfers and Mastering By Charlie Miller 
  Archive
Source Information - Download Text | Download Zip
Grateful Dead - October 20, 1989
The Spectrum - Philadelphia, PA

Recording Info:
SBD -> Cassette Master (TDK MA-XG90)

Transfer Info:
Cassette Master (Tascam 122mkII) -> Apogee MiniMe (24bit/48k) ->
Samplitude Professional v8.01 -> FLAC/16
(3 Discs Audio / 2 Discs FLAC)

All Transfers and Mastering By Charlie Miller
[email protected]
January 28, 2007

Patch Info:
(2) Nakamichi 300/CP4 + (2) Nakamichi 100/CP1 -> Cassette Master -> CD
The Other One Jam (9:13 - 9:22)
Wharf Rat (4:12 - 4:29)

Notes:
-- Set 2 is seamless
-- Thanks to Paul Scotton and Joani Walker for the tapes
-- Patch source recorded By Steve Cherson
-- This was the longest show of the year

Set 1:
d1t01 - Tuning
d1t02 - Touch Of Grey ->
d1t03 - Greatest Story Ever Told
d1t04 - Candyman
d1t05 - Picasso Moon
d1t06 - Just A Little Light
d1t07 - Tennessee Jed
d1t08 - Stuck Inside Of Mobile With The Memphis Blues Again
d1t09 - Stagger Lee
d1t10 - The Promised Land ->
d1t11 - California Earthquake

Set 2:
d2t01 - Tuning
d2t02 - Hey Pocky Way ->
d2t03 - Scarlet Begonias ->
d2t04 - Fire On The Mountain ->
d2t05 - Truckin' ->
d2t06 - The Other One Jam ->
d2t07 - Drums ->
d3t01 - Space ->
d3t02 - I Will Take You Home ->
d3t03 - The Other One ->
d3t04 - Wharf Rat ->
d3t05 - Sugar Magnolia

Encore:
d3t06 - Brokedown Palace


SHNTOOL OUTPUT:
    length     expanded size   cdr  WAVE problems filename
     1:04.49       11404892    ---   --   -----   gd89-10-20d1t01.wav
     6:15.60       66291164    ---   --   -----   gd89-10-20d1t02.wav
     4:46.17       50490428    ---   --   -----   gd89-10-20d1t03.wav
     9:50.08      104094860    ---   --   -----   gd89-10-20d1t04.wav
    10:03.63      106517420    ---   --   -----   gd89-10-20d1t05.wav
     5:50.32       61815308    ---   --   -----   gd89-10-20d1t06.wav
     8:39.47       91662188    ---   --   -----   gd89-10-20d1t07.wav
    11:19.23      119829740    ---   --   -----   gd89-10-20d1t08.wav
     6:53.37       72940268    ---   --   -----   gd89-10-20d1t09.wav
     4:26.64       47072972    ---   --   -----   gd89-10-20d1t10.wav
     6:03.14       64066172    ---   --   -----   gd89-10-20d1t11.wav
     0:49.58        8780060    ---   --   -----   gd89-10-20d2t01.wav
     6:51.03       72507500    ---   --   -----   gd89-10-20d2t02.wav
    10:16.36      108747116    ---   --   -----   gd89-10-20d2t03.wav
    13:42.45      145106684    ---   --   -----   gd89-10-20d2t04.wav
     6:35.16       69715676    ---   --   -----   gd89-10-20d2t05.wav
    14:40.50      155349644    ---   --   -----   gd89-10-20d2t06.wav
    10:50.63      114808220    ---   --   -----   gd89-10-20d2t07.wav
    10:48.67      114464828    ---   --   -----   gd89-10-20d3t01.wav
     5:20.73       56619740    ---   --   -----   gd89-10-20d3t02.wav
    10:56.65      115871324    ---   --   -----   gd89-10-20d3t03.wav
    10:19.54      109318652    ---   --   -----   gd89-10-20d3t04.wav
    12:29.14      132156572    ---   --   -----   gd89-10-20d3t05.wav
     5:46.30       61105004    ---   --   -----   gd89-10-20d3t06.wav
   194:42.13     2060736432 B                     (totals for 24 files)
Show Checksums
ffp
gd89-10-20d1t01.flac:8c63c7e69c7e459e696d4c3987286fbb
gd89-10-20d1t02.flac:6c209631043b29f0dedea3ae5f70f79f
gd89-10-20d1t03.flac:f0e88b00ea6367a6f986c9db1f3819db
gd89-10-20d1t04.flac:1ecd7585ef4fd566b03c51fc26e8c88a
gd89-10-20d1t05.flac:c439faa933277a6efe8482ac723ce441
gd89-10-20d1t06.flac:d095108984e0d8f1f343bb97ffaeaaa7
gd89-10-20d1t07.flac:7248bf848ce03a0313ff06d856d77558
gd89-10-20d1t08.flac:37549ecbb3a1f954dc8f47f711075541
gd89-10-20d1t09.flac:29c52d4a764b4f919ebd8ec7714e62d0
gd89-10-20d1t10.flac:e707bbc9c6d0ae16963caf1c303b17ab
gd89-10-20d1t11.flac:ea30e671159f18e5120296300814eb1f
gd89-10-20d2t01.flac:6025e4a35c30a1f5b2fe17f6223db818
gd89-10-20d2t02.flac:06440ece665324d7e076f411957ac6d7
gd89-10-20d2t03.flac:6240d3773f163c9055c0dfb022fd50b8
gd89-10-20d2t04.flac:f775b5d994c97e2129fd54ea2e5c2f91
gd89-10-20d2t05.flac:fdc445b8a76bda7ed38da4b3915464de
gd89-10-20d2t06.flac:46e71756a44eb1b94b8b4f7628be18c9
gd89-10-20d2t07.flac:b163d557617e1f9c5fb235f5a2cc3ef2
gd89-10-20d3t01.flac:bcbcc156908844262e515cf5f14db5b5
gd89-10-20d3t02.flac:f2bbfd4f0d8730061f17e02ba07a6989
gd89-10-20d3t03.flac:e94209b05d8208458d089d7ed4eb4039
gd89-10-20d3t04.flac:939f5b955d95376aaf95dca5b37a7aa9
gd89-10-20d3t05.flac:87e9923ecd29594321f31d076f2960b3
gd89-10-20d3t06.flac:19b08a1b1fc65ab14db2d20be5b6e36a
flac-md5
6966fc6f160c96a41e376f41a7b0626e *gd89-10-20d1t01.flac
f9e8dad3845f00ec6d442f473431d2c6 *gd89-10-20d1t02.flac
fb49145475517bf694aa76bde1b92a6b *gd89-10-20d1t03.flac
cabc55d3426a0d480d145a6e69d76070 *gd89-10-20d1t04.flac
317895783f2a06cb9030189882451c2b *gd89-10-20d1t05.flac
59199a524e0813fbba92dabb848d370b *gd89-10-20d1t06.flac
4590bb58e482fa85b30d535020430831 *gd89-10-20d1t07.flac
c40a0f03b2e9780d4c8bb43b419b3428 *gd89-10-20d1t08.flac
d04aa73095da31179a637e6e488d022a *gd89-10-20d1t09.flac
d042e40db8e4029aae96fd530ff8034e *gd89-10-20d1t10.flac
79061c831c3041df9beb38411a53bfb7 *gd89-10-20d1t11.flac
3f10bac1628d064e74ba51f98a332ce8 *gd89-10-20d2t01.flac
3483483ea72643ebdb71f8199b3f6baf *gd89-10-20d2t02.flac
d52f0a241b1a2aeac9cf5c9a0b7ff883 *gd89-10-20d2t03.flac
62b9ae06dc0a5966ecfa59511ef20657 *gd89-10-20d2t04.flac
a41736c67e2c05738b16ea1dd87430cc *gd89-10-20d2t05.flac
3db95656b0522fa8493727887cd7c6ff *gd89-10-20d2t06.flac
9c25bbf889bc950e27796b7c314f8253 *gd89-10-20d2t07.flac
85870827570562f171ed151e18d1b20f *gd89-10-20d3t01.flac
26fcedd71d5ff22ba0f3f21414a4c0f7 *gd89-10-20d3t02.flac
45d80d6d5034a80e1420442fb571c631 *gd89-10-20d3t03.flac
b02974306071fa25f14982d7a8c1de52 *gd89-10-20d3t04.flac
74e6fb938a8060bf1162cc9339319949 *gd89-10-20d3t05.flac
cf9581b3a21730bae8b6c6efe2db9da3 *gd89-10-20d3t06.flac

Comments
Add Comment
Other Sources (comments)
DSBD>C?>DAT>CDR; via eD... (0) Ultra-Matrix Soundboard DAT... (0) Seamless fix of (0) Possibly Shure M57s... (2) flac16; Source:... (1) flac16; Matrix by... (0) flac16; SBD Master... (0) flac16; Source:... (0) flac16/48kHz;... (0) flac16; Source:... (0) flac16; MAV (Taped... (0) flac16; Matrix 2... (0) DTS Audio 5.1; SBD... (0) flac16/48kHz; Source... (0)
Date User Comment