Browse Collections Artists Sources   Search Dates

Add Show    List Management    Help


Grateful Dead 11/11/73
Winterland Arena, San Francisco, CA
Comments Add Comment    Source Collectors    Add to Collection    Add to Want List    History
Source # 83318 Other Sources
Entered by Matt Vernon
Checksums ffp , flac-md5
Disc Counts 2 / 4
Media Size
Date Circulated
Date Added
03/14/2007
03/15/2007
Source Summary flac16; Recording Info: SBD -> Master Reel -> Cassette -> Dat (44.1k) Transfer Info: Dat (Sony R500) -> Samplitude Professional v9.02 -> FLAC All Transfers and Mastering By Charlie Miller 
  Archive
Source Information - Download Text | Download Zip
Grateful Dead - November 11, 1973
Winterland Arena - San Francisco, CA

Recording Info:
SBD -> Master Reel -> Cassette -> Dat (44.1k)

Transfer Info:
Dat (Sony R500) -> Samplitude Professional v9.02 -> FLAC
(4 Discs Audio / 2 Discs FLAC)

All Transfers and Mastering By Charlie Miller
[email protected]
March 13, 2007

Patch Info:
SBD -> ? -> Dat -> CD supplies:
Eyes Of The World (7:47 - 8:13)

Notes:
-- Thanks to Steve Rolfe for lending me his Dats
-- This source has more tuning leading up to Dark Star
-- This source does not have the cut at the start of Eyes
-- Encore will fit on end of Disc 2

Set 1:
d1t01 - The Promised Land ->
d1t02 - Bertha ->
d1t03 - Greatest Story Ever Told
d1t04 - Sugaree
d1t05 - Black Throated Wind
d1t06 - To Lay Me Down
d1t07 - El Paso
d1t08 - Ramble On Rose
d1t09 - Me And Bobby McGee
d1t10 - China Cat Sunflower ->
d1t11 - I Know You Rider
d1t12 - Me And My Uncle
d2t01 - Loose Lucy
d2t02 - Weather Report Suite ->
d2t03 - Let It Grow

Set 2:
d2t04 - Mississippi Half-Step Uptown Toodeloo
d2t05 - Big River
d3t01 - Dark Star ->
d3t02 - Mind Left Body Jam ->
d3t03 - Eyes Of The World ->
d3t04 - China Doll
d3t05 - Sugar Magnolia

Encore:
d4t01 - Uncle John's Band
d4t02 - Johnny B. Goode ->
d4t03 - And We Bid You Good Night


SHNTOOL OUTPUT:
    length     expanded size   cdr  WAVE problems filename
     3:02.04       32114252    ---   --   -----   gd73-11-11d1t01.wav
     6:00.49       63619292    ---   --   -----   gd73-11-11d1t02.wav
     6:01.00       63680444    ---   --   -----   gd73-11-11d1t03.wav
     7:25.15       78533324    ---   --   -----   gd73-11-11d1t04.wav
     7:14.32       76632908    ---   --   -----   gd73-11-11d1t05.wav
     8:06.51       85850396    ---   --   -----   gd73-11-11d1t06.wav
     4:36.40       48780524    ---   --   -----   gd73-11-11d1t07.wav
     7:11.43       76129580    ---   --   -----   gd73-11-11d1t08.wav
     6:04.59       64348412    ---   --   -----   gd73-11-11d1t09.wav
     9:22.15       99172124    ---   --   -----   gd73-11-11d1t10.wav
     5:58.72       63320588    ---   --   -----   gd73-11-11d1t11.wav
     3:16.39       34666172    ---   --   -----   gd73-11-11d1t12.wav
     7:28.17       79067228    ---   --   -----   gd73-11-11d2t01.wav
     5:42.58       60465260    ---   --   -----   gd73-11-11d2t02.wav
     9:12.05       97384604    ---   --   -----   gd73-11-11d2t03.wav
     8:31.25       90199244    ---   --   -----   gd73-11-11d2t04.wav
     5:27.04       57692252    ---   --   -----   gd73-11-11d2t05.wav
    32:00.57      338822108    ---   --   -----   gd73-11-11d3t01.wav
     4:26.20       46969484    ---   --   -----   gd73-11-11d3t02.wav
    13:42.36      145085516    ---   --   -----   gd73-11-11d3t03.wav
     5:24.29       57221852    ---   --   -----   gd73-11-11d3t04.wav
    10:18.37      109102268    ---   --   -----   gd73-11-11d3t05.wav
     7:41.07       81336908    ---   --   -----   gd73-11-11d4t01.wav
     3:54.50       41395244    ---   --   -----   gd73-11-11d4t02.wav
     3:09.11       33365516    ---   --   -----   gd73-11-11d4t03.wav
   191:19.25     2024955500 B                     (totals for 25 files)
Show Checksums
ffp
gd73-11-11d1t01.flac:0bdc7a64c32a8b6c522dfe83d9fd9c84
gd73-11-11d1t02.flac:20d848bf5a1ac16a1ca381eb94175bb1
gd73-11-11d1t03.flac:31d407557e79930246d21a61bf9598c7
gd73-11-11d1t04.flac:65eaaac245d635d4400c4c6d256b5ac9
gd73-11-11d1t05.flac:86c99151010a84dc4141b84ebfc40b95
gd73-11-11d1t06.flac:00dcd274cfe3f436defd6b9e1832d690
gd73-11-11d1t07.flac:de730999aec41315b831b884a8dae79c
gd73-11-11d1t08.flac:b660d45a96cfb63c56b47b07ddff94a6
gd73-11-11d1t09.flac:3c3d4fbc08de4295a92716d3fe649b23
gd73-11-11d1t10.flac:dbc4476aae76a78df52a8ab2040af247
gd73-11-11d1t11.flac:63b51cc7d0d607fbf3e3cc096b24d4be
gd73-11-11d1t12.flac:071384a02d0223ab68d9d5432dce506e
gd73-11-11d2t01.flac:3af543cd9a05e0f693ab015f627fe240
gd73-11-11d2t02.flac:2194964430ecb7f3ed5c91dcedf8dd2b
gd73-11-11d2t03.flac:24b5962ba62799e8a4db34061b82c818
gd73-11-11d2t04.flac:51af76cadd20094f398a4aff0692bb6c
gd73-11-11d2t05.flac:61fb1de0da29de0e8290645b4b7e3411
gd73-11-11d3t01.flac:be539f6e628b7a1ff58b276165cde418
gd73-11-11d3t02.flac:e229997559e26100373c3e24fd9a752f
gd73-11-11d3t03.flac:a9cf021768c97fee7a56988d75a7586e
gd73-11-11d3t04.flac:92c66c3e84c3c97ccc00630949aa88c5
gd73-11-11d3t05.flac:bdeb21a51f8ac0398a970b1127c502f1
gd73-11-11d4t01.flac:d3f23c5853afb2ab419497bd6a66a7d3
gd73-11-11d4t02.flac:7ab2490b0c1a663ef24fd00a8c2539b3
gd73-11-11d4t03.flac:36f501eac8a75bf4bb4b3282093caea3
flac-md5
9af005504b6747d7137e956e4554d5c4 *gd73-11-11d1t01.flac
8ad03081991b2b4c65b2899a7e0686b9 *gd73-11-11d1t02.flac
f105f6183e221953d3d465f17518658a *gd73-11-11d1t03.flac
cb83511d7ff7fdcc637788d6c30c0f9a *gd73-11-11d1t04.flac
7cfbafa2907eb7c23a87c52aa7a12d52 *gd73-11-11d1t05.flac
33329831ddf09a7a04c570b8c7c51d03 *gd73-11-11d1t06.flac
81ad26a4ea087e92f73c9c7e2bab3922 *gd73-11-11d1t07.flac
df3dad89eadd77561d7f025a9a568bf5 *gd73-11-11d1t08.flac
9eb9555181c860d4e5e7487a53144f2c *gd73-11-11d1t09.flac
b9e8fef9de61a79dd9cbb54b3203a5cb *gd73-11-11d1t10.flac
6420e695d94e899c79dc45bc5b9beae4 *gd73-11-11d1t11.flac
2cd9c8fadb79665a98199bd38e9aef20 *gd73-11-11d1t12.flac
ed60d8008cfa87f4701781608a7c5b55 *gd73-11-11d2t01.flac
5234cef62a4bcff364b0051e8d462a07 *gd73-11-11d2t02.flac
9b67089d9d4b57b4b058c8ae0031c99a *gd73-11-11d2t03.flac
522afad6930041d6dd007084428b27e5 *gd73-11-11d2t04.flac
938651854c9020809ee16f9433bd0af5 *gd73-11-11d2t05.flac
9c45a3d6901e59f9cb71af9b8d9da554 *gd73-11-11d3t01.flac
c33f68280f1df92c4612ffddf6af0682 *gd73-11-11d3t02.flac
a9652055d105f64a17d296310ebaaea9 *gd73-11-11d3t03.flac
ab2b5fc3652d9f459fa63af17c707dc0 *gd73-11-11d3t04.flac
14a663b55a446e2cf6fba7b7d1c10a15 *gd73-11-11d3t05.flac
438ee6a21abc9ce09d15fec5369c9bc6 *gd73-11-11d4t01.flac
e7b75f11e9fade53927c5397b917524c *gd73-11-11d4t02.flac
c3668697b90ef9c22fa59d7577b86595 *gd73-11-11d4t03.flac

Comments
Add Comment
Other Sources (comments)
Source: Disks 1-2 MSR>... (1) Shntool fix (by Tony... (2) Pitch correction applied by... (0) flac16; Recording... (0)
Date User Comment