Browse Collections Artists Sources   Search Dates

Add Show    List Management    Help


Grateful Dead 10/23/89
Charlotte Coliseum, Charlotte, NC
Comments Add Comment    Source Collectors    Add to Collection    Add to Want List    History
Source # 83327 Other Sources
Entered by Matt Vernon
Checksums ffp , flac-md5
Disc Counts 2 / 3
Media Size
Date Circulated
Date Added
03/15/2007
03/15/2007
Source Summary flac16; Recording Info: SBD -> Cassette Master (TDK MA-XG90) Transfer Info: Cassette Master (Tascam 122mkII) -> Apogee MiniMe (24bit/48k) -> Samplitude Professional v8.01 -> FLAC/16 All Transfers and Mastering By Charlie Miller 
  Archive
Source Information - Download Text | Download Zip
Grateful Dead - October 23, 1989
Charlotte Coliseum - Charlotte, NC

Recording Info:
SBD -> Cassette Master (TDK MA-XG90)

Transfer Info:
Cassette Master (Tascam 122mkII) -> Apogee MiniMe (24bit/48k) ->
Samplitude Professional v8.01 -> FLAC/16
(3 Discs Audio / 2 Discs FLAC)

All Transfers and Mastering By Charlie Miller
[email protected]
January 25, 2007

Notes:
-- 2nd Set is seamless
-- Thanks to Paul Scotton and Joani Walker for the tapes
-- Tape flip at end of Terrapin Station right before Drums

Set 1:
d1t01 - Tuning
d1t02 - California Earthquake
d1t03 - Feel Like A Stranger
d1t04 - Loser
d1t05 - Walkin' Blues
d1t06 - Bertha ->
d1t07 - When I Paint My Masterpiece
d1t08 - Tennessee Jed
d1t09 - Let It Grow

Set 2:
d2t01 - Tuning
d2t02 - Touch Of Grey ->
d2t03 - Looks Like Rain
d2t04 - We Can Run ->
d2t05 - Crazy Fingers ->
d2t06 - Terrapin Station ->
d2t07 - Drums ->
d3t01 - Space ->
d3t02 - I Will Take You Home ->
d3t03 - Goin' Down The Road Feeling Bad ->
d3t04 - Standing On The Moon ->
d3t05 - Turn On Your Lovelight

Encore:
d3t06 - Attics Of My Life


SHNTOOL OUTPUT:
    length     expanded size   cdr  WAVE problems filename
     0:55.44        9805532    ---   --   -----   gd89-10-23d1t01.wav
     5:50.20       61787084    ---   --   -----   gd89-10-23d1t02.wav
    10:14.60      108450764    ---   --   -----   gd89-10-23d1t03.wav
     7:11.00       76028444    ---   --   -----   gd89-10-23d1t04.wav
     8:33.61       90636716    ---   --   -----   gd89-10-23d1t05.wav
     6:46.11       71644316    ---   --   -----   gd89-10-23d1t06.wav
     7:03.03       74624300    ---   --   -----   gd89-10-23d1t07.wav
     8:36.52       91144748    ---   --   -----   gd89-10-23d1t08.wav
    13:07.17      138866828    ---   --   -----   gd89-10-23d1t09.wav
     2:20.53       24820700    ---   --   -----   gd89-10-23d2t01.wav
     6:34.37       69588668    ---   --   -----   gd89-10-23d2t02.wav
     9:24.19       99534332    ---   --   -----   gd89-10-23d2t03.wav
     6:51.62       72646268    ---   --   -----   gd89-10-23d2t04.wav
     8:13.18       87007580    ---   --   -----   gd89-10-23d2t05.wav
    14:03.46      148813436    ---   --   -----   gd89-10-23d2t06.wav
     7:48.22       82606988    ---   --   -----   gd89-10-23d2t07.wav
    10:42.32      113324108    ---   --   -----   gd89-10-23d3t01.wav
     4:54.17       51901628    ---   --   -----   gd89-10-23d3t02.wav
     7:35.39       80353772    ---   --   -----   gd89-10-23d3t03.wav
     8:51.05       93680204    ---   --   -----   gd89-10-23d3t04.wav
     7:24.22       78373388    ---   --   -----   gd89-10-23d3t05.wav
     5:56.34       62878412    ---   --   -----   gd89-10-23d3t06.wav
   168:58.74     1788518216 B                     (totals for 22 files)
Show Checksums
ffp
gd89-10-23d1t01.flac:5e3a7de90577381da379ab4dda286e1e
gd89-10-23d1t02.flac:6adc43ffc137f1cec60d422ec697f9f3
gd89-10-23d1t03.flac:79b7646a0afcf3edccf93eb73564b10f
gd89-10-23d1t04.flac:fd8ffa08dd501c07c3cd64674c24e091
gd89-10-23d1t05.flac:7f4685e52bf59add507a705b87dba496
gd89-10-23d1t06.flac:d4e280d32bc5f0764274efde087f5c9b
gd89-10-23d1t07.flac:6fe2eae90f670c795247f436b90ee1a0
gd89-10-23d1t08.flac:f1e47d263bd4492c61b0b44a9a053631
gd89-10-23d1t09.flac:a7ccfa152bed9dffc8f1edab8a3352f7
gd89-10-23d2t01.flac:92ef3755736c9d9db4509cdfff438594
gd89-10-23d2t02.flac:aed3c82c93698012b24248fd8f63ebbf
gd89-10-23d2t03.flac:d12aaeb69a35afc8b723f6b4fb971387
gd89-10-23d2t04.flac:b274f1509cac56b75eed383d335b30da
gd89-10-23d2t05.flac:f025f78a75944e5274d94b45eb499c37
gd89-10-23d2t06.flac:e5e031acee0555e83fbd40db2d4124f3
gd89-10-23d2t07.flac:5e34d1769ce788a7493220e85cf2f566
gd89-10-23d3t01.flac:6a7e6374b434a1debf69d1ed42362684
gd89-10-23d3t02.flac:a9f6f5cfc1695beee61bbb92c4bc7854
gd89-10-23d3t03.flac:fbfe5497e916a9c505bbe7cdd9dac171
gd89-10-23d3t04.flac:8b61d01d0c7dc2c402bd68babdc31ba3
gd89-10-23d3t05.flac:e7ec09dcb1f60e6dba82ef9a8e55461d
gd89-10-23d3t06.flac:32a8be7db0e241b98259ff7df6580f2a
flac-md5
eb1bc858f34adcf5ed67547fe7c13448 *gd89-10-23d1t01.flac
7818d6d03aaee42b21b97d63a188363b *gd89-10-23d1t02.flac
65ad3457d76d86bacf443ea7ab88357d *gd89-10-23d1t03.flac
0563692fa671f1a14473e39fe15058f3 *gd89-10-23d1t04.flac
07bd8bab31e33595c86dd33bbfd32566 *gd89-10-23d1t05.flac
a6871f9a0ffb0dcc9ede286d90e510d3 *gd89-10-23d1t06.flac
0cf0c05499d040471341a4fa81a505fa *gd89-10-23d1t07.flac
a61553e2307b921a51491e6e9c86cb24 *gd89-10-23d1t08.flac
4873b32a16d2dd187a70618abb521c76 *gd89-10-23d1t09.flac
232ccab629974832a918794485e7f696 *gd89-10-23d2t01.flac
db96ab2d3d8f0e2e677c8e733207e697 *gd89-10-23d2t02.flac
33357736c46abd9d76707ba74ffd06c9 *gd89-10-23d2t03.flac
1c00bb894d33a3270fc82c5860c6adad *gd89-10-23d2t04.flac
4f2940804c9c6405dc0ff7ceea7f52f4 *gd89-10-23d2t05.flac
07f46c9d36a94784c5337f2ca241046a *gd89-10-23d2t06.flac
bec69da076c4302cdfbfc99bbb60b71f *gd89-10-23d2t07.flac
35623d502924447c9dd81b8720af1428 *gd89-10-23d3t01.flac
ec466c0fb05aa2f1cc16dddf9132e4a2 *gd89-10-23d3t02.flac
d2413acc62babfef8f8706cb3f96bc26 *gd89-10-23d3t03.flac
d677954449233d57e6ca9df9489eb35e *gd89-10-23d3t04.flac
6aa6eba0e945ecc5aa09b13485c65311 *gd89-10-23d3t05.flac
ae6f02b43e8bcd5a9114486eca668235 *gd89-10-23d3t06.flac

Comments
Add Comment
Other Sources (comments)
SBD>Cassette Master> Sonic... (6) flac16; Source:... (0) flac16; Matrix by... (0) flac16: Master... (0) flac24: Master... (0) flac16; Source: Set... (0) flac16/48kHz; Source... (0)
Date User Comment