Browse Collections Artists Sources   Search Dates

Add Show    List Management    Help


Grateful Dead 03/22/73
Utica Memorial Auditorium, Utica, NY
Comments Add Comment    Source Collectors    Add to Collection    Add to Want List    History
Source # 83397 Other Sources
Entered by dr.unclear
Checksums ffp , flac-md5
Disc Counts 1 / 2
Media Size
Date Circulated
Date Added
03/15/2007
03/15/2007
Source Summary flac 16; Source: 10" Betty Board Reel > PCM501ES analog out > Fostex D5 optical S/PDIF out (Jace's Tape) > disk; Transferred by Tim Deibert 6-10-2002  
  Archive
Source Information - Download Text | Download Zip
Grateful Dead
March 22, 1973
Memorial Auditorium, Utica, NY

Most of Set I and some of Set II. missing 2nd Encore.

10" Betty Board Reel > PCM501ES analog out > Fostex D5 optical S/PDIF out (Jace's Tape) > disk
Transferred by Tim Deibert 6-10-2002

Disc 1 of 2: [71:20]

Set I
1. Tuning (1:58)
2. Promised Land (3:37)
3. Sugaree (8:43)
4. Mexicali Blues (4:11)
5. They Love Each Other (6:18)
6. Looks Like Rain (8:04)
7. Deal (5:50)
8. Beat It On Down The Line (3:50)
9. Bird Song (13:12)
10. Jack Straw (4:58)
11. Fire Aisle Banter (2:03)
12. Box Of Rain (5:10)
13. You Ain't Woman Enough (3:18)

Disc 2 of 2: [55:17]

1. The Race Is On (3:37)
2. Row Jimmy (8:44)
3. El Paso (4:18)
Set II
4. ...Other One -> (1:33)
5. Eyes -> (15:13)
6. China Doll (7:48)
7. Sugar Magnolia (8:40)
8. E: One More Saturday Night (5:19)

NOTES:
* Sound Forge 6.0 volume raised to +2.4dB.
* Sound Forge 6.0 peak normalization @ 99%.
* Middle reel of show unplayable due to mold and water damage.


notes from trailmix 3-15-07:
  Project WBOTB
  these shns were decoded to wav, SBE's fixed (by set), then encoded to flac16 (level 6). The process was repeated and resulted in identical wavs.


Although the original shns were created in 2002, they are not in circulation and do not exist in the database (which is why these shns were converted and fixed).




    length     expanded size   cdr  WAVE problems filename
     1:58.66       20970972    -b-   --   ---xx   gd1973-03-22d1t01.shn
     3:37.24       38335292    ---   --   ---xx   gd1973-03-22d1t02.shn
     8:43.32       92332508    ---   --   ---xx   gd1973-03-22d1t03.shn
     4:11.28       44342300    ---   --   ---xx   gd1973-03-22d1t04.shn
     6:18.35       66760620    -b-   --   ---xx   gd1973-03-22d1t05.shn
     8:04.05       85389404    ---   --   ---xx   gd1973-03-22d1t06.shn
     5:50.21       61789436    ---   --   ---xx   gd1973-03-22d1t07.shn
     3:50.44       40675532    ---   --   ---xx   gd1973-03-22d1t08.shn
    13:12.14      139741772    ---   --   ---xx   gd1973-03-22d1t09.shn
     4:58.14       52600172    ---   --   ---xx   gd1973-03-22d1t10.shn
     2:03.67       21854828    ---   --   ---xx   gd1973-03-22d1t11.shn
     5:10.72       54853388    ---   --   ---xx   gd1973-03-22d1t12.shn
     3:18.51       35047196    ---   --   ---xx   gd1973-03-22d1t13.shn
     3:37.54       38405852    ---   --   ---xx   gd1973-03-22d2t01.shn
     8:44.45       92539484    ---   --   ---xx   gd1973-03-22d2t02.shn
     4:18.50       45629484    -b-   --   ---xx   gd1973-03-22d2t03.shn
     1:33.06       16418844    -b-   --   ---xx   gd1973-03-22d2t04.shn
    15:13.16      161090876    ---   --   ---xx   gd1973-03-22d2t05.shn
     7:48.25       82614044    ---   --   ---xx   gd1973-03-22d2t06.shn
     8:40.21       91777436    ---   --   ---xx   gd1973-03-22d2t07.shn
     5:19.38       56361004    -b-   --   ---xx   gd1973-03-22d2t08.shn
   126:33.53     1339530444 B                     (totals for 21 files, 0.5047 overall compression ratio)


    length     expanded size   cdr  WAVE problems filename
     1:58.66       20970476    ---   --   ---xx   gd1973-03-22d1t01-fixed.flac
     3:37.24       38335292    ---   --   ---xx   gd1973-03-22d1t02-fixed.flac
     8:43.32       92332508    ---   --   ---xx   gd1973-03-22d1t03-fixed.flac
     4:11.28       44342300    ---   --   ---xx   gd1973-03-22d1t04-fixed.flac
     6:18.34       66759212    ---   --   ---xx   gd1973-03-22d1t05-fixed.flac
     8:04.05       85389404    ---   --   ---xx   gd1973-03-22d1t06-fixed.flac
     5:50.21       61789436    ---   --   ---xx   gd1973-03-22d1t07-fixed.flac
     3:50.44       40675532    ---   --   ---xx   gd1973-03-22d1t08-fixed.flac
    13:12.14      139741772    ---   --   ---xx   gd1973-03-22d1t09-fixed.flac
     4:58.14       52600172    ---   --   ---xx   gd1973-03-22d1t10-fixed.flac
     2:03.67       21854828    ---   --   ---xx   gd1973-03-22d1t11-fixed.flac
     5:10.72       54853388    ---   --   ---xx   gd1973-03-22d1t12-fixed.flac
     3:18.52       35049548    ---   --   ---xx   gd1973-03-22d1t13-fixed.flac
     3:37.54       38405852    ---   --   ---xx   gd1973-03-22d2t01.flac
     8:44.45       92539484    ---   --   ---xx   gd1973-03-22d2t02.flac
     4:18.50       45628844    ---   --   ---xx   gd1973-03-22d2t03-fixed.flac
     1:33.06       16419356    ---   --   ---xx   gd1973-03-22d2t04-fixed.flac
    15:13.16      161090876    ---   --   ---xx   gd1973-03-22d2t05-fixed.flac
     7:48.25       82614044    ---   --   ---xx   gd1973-03-22d2t06-fixed.flac
     8:40.21       91777436    ---   --   ---xx   gd1973-03-22d2t07-fixed.flac
     5:19.39       56363372    ---   --   ---xx   gd1973-03-22d2t08-fixed.flac
   126:33.54     1339533132 B                     (totals for 21 files, 0.4864 overall compression ratio)
Show Checksums
ffp
gd1973-03-22d1t01-fixed.flac:cb9856b3b35e1b53a651b6c430bc39fe
gd1973-03-22d1t02-fixed.flac:add9c00c16e122afaf56f0a12c09155d
gd1973-03-22d1t03-fixed.flac:22eb4afc8ce2d36b41a6d46e77738965
gd1973-03-22d1t04-fixed.flac:51e8010ddac677fe4fb2c1d7cf6b4613
gd1973-03-22d1t05-fixed.flac:6c2a8361051db44096bd6b1bd9f4773b
gd1973-03-22d1t06-fixed.flac:2c8a9ec037ec95e952302c9f48516395
gd1973-03-22d1t07-fixed.flac:59bc6ec2a3fd8dca564bd8fec587b11a
gd1973-03-22d1t08-fixed.flac:1e0eec50e806fc1dece5416f6df9c839
gd1973-03-22d1t09-fixed.flac:090deeba8e271a2108f055c2597cbd64
gd1973-03-22d1t10-fixed.flac:8b0e3ae839a19feb4563d1b34df2d82f
gd1973-03-22d1t11-fixed.flac:f74e2a89d202cfbe3c48294ae13130b1
gd1973-03-22d1t12-fixed.flac:1b207ac56495c3577cfc6adbe49efd46
gd1973-03-22d1t13-fixed.flac:eec817db77b3e60ccbcfd3325a133d0f
gd1973-03-22d2t01.flac:330dfc54b8608dafb51bc00f343e7f9e
gd1973-03-22d2t02.flac:44c9b4e329e238521947728c2aa97122
gd1973-03-22d2t03-fixed.flac:83e879b96a77462d9d8ea2446c201072
gd1973-03-22d2t04-fixed.flac:be3c80a2e65f53c264f142f85d3e5957
gd1973-03-22d2t05-fixed.flac:b5ba6adfdff537ea1fcc4ff8b711b34c
gd1973-03-22d2t06-fixed.flac:cd57eafc9845a097bc178fac9c2f47ad
gd1973-03-22d2t07-fixed.flac:d8bcf3ae49c4a75b6ec95a7297f22652
gd1973-03-22d2t08-fixed.flac:12d20bcdef97db013716c7923705bb4f
flac-md5
d27ef4de65eda17c82dad3ffbf132b23 *gd1973-03-22d1t01-fixed.flac
611cf730dae9d39f62704c5e38922197 *gd1973-03-22d1t02-fixed.flac
11e50390527621d73241fd8c8b8b9c51 *gd1973-03-22d1t03-fixed.flac
4e1fee469fbc4bf244a675b4c5af2bb2 *gd1973-03-22d1t04-fixed.flac
88dfbf3b651c99b6b15495ac743a14ad *gd1973-03-22d1t05-fixed.flac
50e7dc413158368f4505339f2ed79bd2 *gd1973-03-22d1t06-fixed.flac
233e418c8fd12c4cc9c7297d9d7d247d *gd1973-03-22d1t07-fixed.flac
b74cf2b1dc236b25e593e6ff243a08ab *gd1973-03-22d1t08-fixed.flac
b1fdebf9e0aa12fa78b5689502a9188e *gd1973-03-22d1t09-fixed.flac
0d848927028314cd5a7f778b8fe1929f *gd1973-03-22d1t10-fixed.flac
37ef9db3ad23fd9096c043ba8e6b6899 *gd1973-03-22d1t11-fixed.flac
76d040e36c6f7246d9d872aba46595b4 *gd1973-03-22d1t12-fixed.flac
e9dff4d437d6c39e12feca7217a82fb9 *gd1973-03-22d1t13-fixed.flac
4486f49b43d0b5097a4981db126e3bb8 *gd1973-03-22d2t01.flac
1acabd34ed73680bec570656dbb2afdc *gd1973-03-22d2t02.flac
c01237caf1b0dea022d5a90bb3a032b3 *gd1973-03-22d2t03-fixed.flac
f15ee250c5220bf13a2c80dc3fc77f11 *gd1973-03-22d2t04-fixed.flac
e8053fcf1c899f87ca68ecd7493509cd *gd1973-03-22d2t05-fixed.flac
bde13130cbdd7752cc8878c58f7e98eb *gd1973-03-22d2t06-fixed.flac
242e27250ddb3d52493bbbef16dc815b *gd1973-03-22d2t07-fixed.flac
23717b4bc916b2d8c4d20df133c13107 *gd1973-03-22d2t08-fixed.flac

Comments
Add Comment
Other Sources (comments)
MSR> DATs> CDRx1> EAC> SHN;... (2) flac16; Soundboard >... (0)
Date User Comment
03/16/2007 joesamaritano Is there additional info on the transfer between Jace's tape and disk such as soundcard and recording software?