Browse Collections Artists Sources   Search Dates

Add Show    List Management    Help


Grateful Dead 03/24/73
The Spectrum, Philadelphia, PA
Comments Add Comment    Source Collectors    Add to Collection    Add to Want List    History
Source # 83407 Other Sources
Entered by dr.unclear
Checksums ffp , flac-md5
Disc Counts 1 / 2
Media Size
Date Circulated
Date Added
03/16/2007
03/16/2007
Source Summary flac16; 10" Betty Board Reel > PCM501ES > Fostex D5 (Jace's tape) optical S/PDIF out > disk Transferred by Tim Deibert 5-18-02 
  Archive
Source Information - Download Text | Download Zip
Grateful Dead
March 24, 1973
The Spectrum, Philadelphia, PA

10" Betty Board Reel > PCM501ES > Fostex D5 (Jace's tape) optical S/PDIF out > disk
Transferred by Tim Deibert 5-18-02

Disc 1 of 2: [73:55]

End of Set One:
1. ...Here Comes Sunshine (2:29)
2. Me & Bobby McGee (6:17)
3. Loser (9:31)
4. Playin' In The Band (19:23)
Set Two:
5. Set II Intro (1:17)
6. Promised Land (3:14)
7. China Cat Sunflower -> (6:21)
8. Mud Love Buddy Jam -> (1:47)
9. I Know You Rider (6:38)
10. Big River (5:12)
11. Stella Blue (8:22)
12. Me & My Uncle (3:18)

Disc 2 of 2: [72:53]

1. He's Gone (13:43)
2. Truck...in' -> (9:48)
3. Spanish Jam -> (17:57)
4. Space -> (4:14)
5. Dark Star -> (3:59)
6. Sing Me Back Home (10:15)
7. Sugar Magnolia (9:05)
8: E: Johnny B. Goode (3:47)

NOTES:
* First reel of show unplayable due to mold and water damage.
* Mold & water damage causes some distortion.
* Sound Forge 6.0 volume raised to +2.4dB.
* Sound Forge 6.0 peak normalization to 99%.
* Sound Forge Noise Reduction 2.0 noise reduction sample taken and
   used to reduce hum to -30dB in mode 3.
* Splits in Truckin' at about 8:45.


notes from trailmix 3-15-07:
� Project WBOTB
� these shns were decoded to wav, SBE's fixed (by set), then encoded to flac16 (level 6). The process was repeated and resulted in identical .wavs.
� Although the original shns were created in 2002, they are not in circulation and do not exist in the database (which is why these shns were converted and fixed).


    length     expanded size   cdr  WAVE problems filename
     2:29.00       26283644    ---   --   ---xx   gd1973-03-24d1t01.shn
     6:17.11       66528716    ---   --   ---xx   gd1973-03-24d1t02.shn
     9:31.33      100801928    -b-   --   ---xx   gd1973-03-24d1t03.shn
    19:23.67      205310828    ---   --   ---xx   gd1973-03-24d1t04.shn
     1:17.13       13613420    ---   --   ---xx   gd1973-03-24d1t05.shn
     3:14.46       34329836    ---   --   ---xx   gd1973-03-24d1t06.shn
     6:21.60       67349564    ---   --   ---xx   gd1973-03-24d1t07.shn
     1:47.19       18919532    ---   --   ---xx   gd1973-03-24d1t08.shn
     6:38.07       70223708    ---   --   ---xx   gd1973-03-24d1t09.shn
     5:12.42       55135628    ---   --   ---xx   gd1973-03-24d1t10.shn
     8:22.32       88628108    ---   --   ---xx   gd1973-03-24d1t11.shn
     3:18.17       34967228    ---   --   ---xx   gd1973-03-24d1t12.shn
    13:43.02      145181948    ---   --   ---xx   gd1973-03-24d2t01.shn
     9:48.24      103779692    ---   --   ---xx   gd1973-03-24d2t02.shn
    17:57.33      190060460    ---   --   ---xx   gd1973-03-24d2t03.shn
     4:14.47       44916188    ---   --   ---xx   gd1973-03-24d2t04.shn
     3:59.60       42300764    ---   --   ---xx   gd1973-03-24d2t05.shn
    10:15.62      108631868    ---   --   ---xx   gd1973-03-24d2t06.shn
     9:05.34       96218012    ---   --   ---xx   gd1973-03-24d2t07.shn
     3:47.13       40073260    -b-   --   ---xx   gd1973-03-24d2t08.shn
   146:45.22     1553254332 B                     (totals for 20 files, 0.4834 overall compression ratio)

    length     expanded size   cdr  WAVE problems filename
     2:29.00       26283644    ---   --   ---xx   gd1973-03-24d1t01.flac
     6:17.11       66528716    ---   --   ---xx   gd1973-03-24d1t02.flac
     9:31.32      100799708    ---   --   ---xx   gd1973-03-24d1t03-fixed.flac
    19:23.68      205313180    ---   --   ---xx   gd1973-03-24d1t04-fixed.flac
     1:17.13       13613420    ---   --   ---xx   gd1973-03-24d1t05.flac
     3:14.46       34329836    ---   --   ---xx   gd1973-03-24d1t06.flac
     6:21.60       67349564    ---   --   ---xx   gd1973-03-24d1t07.flac
     1:47.19       18919532    ---   --   ---xx   gd1973-03-24d1t08.flac
     6:38.07       70223708    ---   --   ---xx   gd1973-03-24d1t09.flac
     5:12.42       55135628    ---   --   ---xx   gd1973-03-24d1t10.flac
     8:22.32       88628108    ---   --   ---xx   gd1973-03-24d1t11.flac
     3:18.17       34967228    ---   --   ---xx   gd1973-03-24d1t12.flac
    13:43.02      145181948    ---   --   ---xx   gd1973-03-24d2t01.flac
     9:48.24      103779692    ---   --   ---xx   gd1973-03-24d2t02.flac
    17:57.33      190060460    ---   --   ---xx   gd1973-03-24d2t03.flac
     4:14.47       44916188    ---   --   ---xx   gd1973-03-24d2t04.flac
     3:59.60       42300764    ---   --   ---xx   gd1973-03-24d2t05.flac
    10:15.62      108631868    ---   --   ---xx   gd1973-03-24d2t06.flac
     9:05.34       96218012    ---   --   ---xx   gd1973-03-24d2t07.flac
     3:47.13       40073420    ---   --   ---xx   gd1973-03-24d2t08.flac
   146:45.22     1553254624 B                     (totals for 20 files, 0.4596 overall compression ratio)
Show Checksums
ffp
gd1973-03-24d1t01.flac:8c2223aa0c2993d6dc068849ea2ff665
gd1973-03-24d1t02.flac:6822b94cf20b951701fae9aa529fef61
gd1973-03-24d1t03-fixed.flac:6f231ee91674c7e0201d9678c50cd20a
gd1973-03-24d1t04-fixed.flac:9ee354dd3de8f391d3b3b81f19be3fc7
gd1973-03-24d1t05.flac:7be4dbd7a93e2ad49dea5a7e753fc5ab
gd1973-03-24d1t06.flac:d20bca39013bba3040dd76b593ef5437
gd1973-03-24d1t07.flac:8b71c93d97d41ef11c51cc8f69c3e43c
gd1973-03-24d1t08.flac:4b7ccada941d5d9a2690c04f865c65b0
gd1973-03-24d1t09.flac:bb5c7113bb8f8585afae02b56a3f3907
gd1973-03-24d1t10.flac:ed86c56e2d5186d8bcdab74befb5e56c
gd1973-03-24d1t11.flac:b3a18698ff91bfe809fe52d0e3f42abc
gd1973-03-24d1t12.flac:985d10a8e47da1a2141ddf6c0569034b
gd1973-03-24d2t01.flac:8e2e871bb006d953ef67e475b980f628
gd1973-03-24d2t02.flac:35cf414c648cef04f79025ff494a7b9f
gd1973-03-24d2t03.flac:f9968d5adf6c28afea802114f183e65a
gd1973-03-24d2t04.flac:b7ee2816ade84de241579c6b3bae901e
gd1973-03-24d2t05.flac:012656a425a6c3bba32de2e58916050d
gd1973-03-24d2t06.flac:fe15e5d211c4e0bde0ca5aea2c8a5a27
gd1973-03-24d2t07.flac:ef1ab00491afa889a31a3af9927ffa54
gd1973-03-24d2t08.flac:d4017e33d3c2bc0f725beb861c9623d2
flac-md5
0b45977d8de118daf25ede567729c9c6 *gd1973-03-24d1t01.flac
9fa0655ed8ccbd69fcd1cc2660a613e7 *gd1973-03-24d1t02.flac
bb4c8d8ea15603d076da781f62a060b4 *gd1973-03-24d1t03-fixed.flac
f0c89c0d6b2fcd0ab78800063888f5b5 *gd1973-03-24d1t04-fixed.flac
88bee2b426bb9a7bd41f9753c54b8ebb *gd1973-03-24d1t05.flac
558d41a0f054fc81cf18dc38748cda04 *gd1973-03-24d1t06.flac
d792586310a01af1b436b156311666db *gd1973-03-24d1t07.flac
c29aab69562d9f12302de9243ba994e4 *gd1973-03-24d1t08.flac
a038e7fbc90e13999a0c812935d06e36 *gd1973-03-24d1t09.flac
d2c5d9c2339e8a1ab66b85f89dfa5ffa *gd1973-03-24d1t10.flac
3caf70518e8f59d1889004f1942dc0cf *gd1973-03-24d1t11.flac
4fb292c116196d794f83894c48d1fd2e *gd1973-03-24d1t12.flac
3d1b298c6ff77745618fc42ad9a2c180 *gd1973-03-24d2t01.flac
f85d32352652b20e4cd9424e16c87c0e *gd1973-03-24d2t02.flac
dcbbaa1f0b8fb5e24bbc15dfd52635c7 *gd1973-03-24d2t03.flac
afceaf0b07579006b6b4ffda99490eaa *gd1973-03-24d2t04.flac
066bb8b72c5e20b1a37ba56880e349a4 *gd1973-03-24d2t05.flac
815c775a53c0ab8514fa80b4d68a7d0f *gd1973-03-24d2t06.flac
b31c4cadb286debc7c13f48445c22466 *gd1973-03-24d2t07.flac
9a07ca2aa04da6701dee905b5bb8029f *gd1973-03-24d2t08.flac

Comments
Add Comment
Other Sources (comments)
S:MR > cassette > DAT >... (2) SBD>>MR>>CASS>>DAT>>CDA>>SH... (0) flac16; Primary... (0)
Date User Comment
10/21/2017 [email protected] The noise reduction is a bit too obvious making it a tough listen. I knew it was there before reading the info file.