Browse Collections Artists Sources   Search Dates

Add Show    List Management    Help


Grateful Dead 10/26/89
Miami Arena, Miami, FL
Comments Add Comment    Source Collectors    Add to Collection    Add to Want List    History
Source # 83428 Other Sources
Entered by Matt Vernon
Checksums ffp , flac-md5
Disc Counts 2 / 3
Media Size
Date Circulated
Date Added
03/16/2007
03/16/2007
Source Summary flac16; Recording Info: SBD -> Cassette Master (TDK MA-XG90) Transfer Info: Cassette Master (Tascam 122mkII) -> Apogee MiniMe (24bit/48k) -> Samplitude Professional v8.01 -> FLAC/16 All Transfers and Mastering By Charlie Miller 
  Archive
Source Information - Download Text | Download Zip
Grateful Dead - October 26, 1989
Miami Arena - Miami, FL

Recording Info:
SBD -> Cassette Master (TDK MA-XG90)

Transfer Info:
Cassette Master (Tascam 122mkII) -> Apogee MiniMe (24bit/48k) ->
Samplitude Professional v8.01 -> FLAC/16
(3 Discs Audio / 2 Discs FLAC)

All Transfers and Mastering By Charlie Miller
[email protected]
January 24, 2007

Notes:
-- 2nd Set is seamless
-- Thanks to Paul Scotton and Joani Walker for the tapes
-- Tape flips in Dark Star and Not Fade Away patched with DSBD

Set 1:
d1t01 - Foolish Heart
d1t02 - Little Red Rooster
d1t03 - Stagger Lee
d1t04 - Me And My Uncle ->
d1t05 - Big River
d1t06 - Brown Eyed Women
d1t07 - Victim Or The Crime ->
d1t08 - Don't Ease Me In

Set 2:
d2t01 - Tuning
d2t02 - Estimated Prophet ->
d2t03 - Blow Away
d2t04 - Dark Star ->
d2t05 - Drums ->
d3t01 - Space ->
d3t02 - The Wheel ->
d3t03 - All Along The Watchtower ->
d3t04 - Stella Blue ->
d3t05 - Not Fade Away

Encore:
d3t06 - And We Bid You Good Night


SHNTOOL OUTPUT:
    length     expanded size   cdr  WAVE problems filename
     9:47.48      103659740    ---   --   -----   gd89-10-26d1t01.wav
    11:12.65      118693724    ---   --   -----   gd89-10-26d1t02.wav
     7:58.54       84446252    ---   --   -----   gd89-10-26d1t03.wav
     2:51.18       30206780    ---   --   -----   gd89-10-26d1t04.wav
     7:58.37       84406268    ---   --   -----   gd89-10-26d1t05.wav
     6:23.57       67695308    ---   --   -----   gd89-10-26d1t06.wav
     7:53.70       83601884    ---   --   -----   gd89-10-26d1t07.wav
     3:32.03       37403900    ---   --   -----   gd89-10-26d1t08.wav
     3:10.27       33579548    ---   --   -----   gd89-10-26d2t01.wav
    13:15.51      140357996    ---   --   -----   gd89-10-26d2t02.wav
    10:31.68      111468380    ---   --   -----   gd89-10-26d2t03.wav
    26:53.53      284657900    ---   --   -----   gd89-10-26d2t04.wav
     9:49.10      103923164    ---   --   -----   gd89-10-26d2t05.wav
     7:27.37       78937868    ---   --   -----   gd89-10-26d3t01.wav
     4:10.35       44182364    ---   --   -----   gd89-10-26d3t02.wav
     5:27.65       57835724    ---   --   -----   gd89-10-26d3t03.wav
     8:19.51       88143596    ---   --   -----   gd89-10-26d3t04.wav
    12:19.21      130409036    ---   --   -----   gd89-10-26d3t05.wav
     3:17.71       34917836    ---   --   -----   gd89-10-26d3t06.wav
   162:22.16     1718527268 B                     (totals for 19 files)
Show Checksums
ffp
gd89-10-26d1t01.flac:cc489d3723d31b680552a3b6a13202b1
gd89-10-26d1t02.flac:92607335e1875a848ee055f68ca961f5
gd89-10-26d1t03.flac:d6fbcadaf3907bc4d3469854d3a5dd49
gd89-10-26d1t04.flac:5bd0624718382bb605efaf7caa60d930
gd89-10-26d1t05.flac:84282e4bf1ec9781c461fa2792c62b40
gd89-10-26d1t06.flac:a04007a2c15c46ce7b89f13b50831d30
gd89-10-26d1t07.flac:f45a4eab0beca6ab52dddd4757150ccb
gd89-10-26d1t08.flac:0f71221cd51af5788e2b824019ce0ebf
gd89-10-26d2t01.flac:386bd2ee8e3ae47ace0f0fe8f748ddf5
gd89-10-26d2t02.flac:ebe1d1471639e6f43ac1523f24e2dbed
gd89-10-26d2t03.flac:7854a874d69205f2347629a9ad4641d9
gd89-10-26d2t04.flac:9ade493c2642e60dc407e1d51c99df3e
gd89-10-26d2t05.flac:6739d05ca510f926f893fb042c182ee7
gd89-10-26d3t01.flac:a68d4335d3525c28fefea785a3e2093a
gd89-10-26d3t02.flac:433c16444680976c58fd4a0a332764e1
gd89-10-26d3t03.flac:ed1d355271362a9344629bb82aa4ecc8
gd89-10-26d3t04.flac:4377865020269db167dfd65bbcd07a88
gd89-10-26d3t05.flac:07ac8c9e1aec29c226f74bbe2d165219
gd89-10-26d3t06.flac:f8b911025e6436828b192f0279d18628
flac-md5
c2e84646ef1270434805a81872d0bc08 *gd89-10-26d1t01.flac
470266546c58b9dafcb692ce0216f871 *gd89-10-26d1t02.flac
f7aa8789048bdbccdc39067976d599e3 *gd89-10-26d1t03.flac
7e9c51886394c9ad0bd3c109cf1d63f6 *gd89-10-26d1t04.flac
65fe2eae004b80c2fbc65d74eddee472 *gd89-10-26d1t05.flac
4b4fffa70f1a41e88ec2a9b8b9964a74 *gd89-10-26d1t06.flac
fc928edead7a3bd3e912a2f36bff5a76 *gd89-10-26d1t07.flac
ef37620c04c9713337a68e8ec238574a *gd89-10-26d1t08.flac
941c597db77d64dd21fe21bba876ada7 *gd89-10-26d2t01.flac
174bbf1dfb522aa0d22e7e8c041227f2 *gd89-10-26d2t02.flac
1673953b01e0d4f51371a7e20d04692f *gd89-10-26d2t03.flac
28b5c5a2d1f21f0c6878aae1030d3f97 *gd89-10-26d2t04.flac
8da49793534fa5ebda6c6b235349b83f *gd89-10-26d2t05.flac
7cebed13c25fbf4c8b05054286e1fed1 *gd89-10-26d3t01.flac
59348f20592af461f27ed48ed9f2d030 *gd89-10-26d3t02.flac
684e0ce5cf231c70fd538ffa8bfb5f84 *gd89-10-26d3t03.flac
4953c844f75a6ca8574e260eaa12dd20 *gd89-10-26d3t04.flac
d52bf189395f03dbc1f4ce9efe00326e *gd89-10-26d3t05.flac
9d0ea3566aa2678b6d53f1568b5a7be3 *gd89-10-26d3t06.flac

Comments
Add Comment
Other Sources (comments)
Soundboard > Cassette >... (2) SBD -> Dat -> Sonic... (1) Soundboard (Ultra Matrix) >... (1) Set 1 only. SBD -> Cm ->... (1) Complete show Set 1 from (0) flac16;Schoeps CMC34... (0) flac16/48kHz;... (1) flac16; Source:... (1) flac16;2 Source... (0) flac16/48kHz; Source... (0)
Date User Comment