Browse Collections Artists Sources   Search Dates

Add Show    List Management    Help


Grateful Dead 05/26/73
Kezar Stadium, San Francisco, CA
Comments Add Comment    Source Collectors    Add to Collection    Add to Want List    History
Source # 83438 Other Sources
Entered by dr.unclear
Checksums ffp , flac-md5
Disc Counts 2 / 4
Media Size
Date Circulated
Date Added
03/18/2008
03/17/2007
Source Summary flac16; 7" Betty Board Reel @ 7 1/2 ips > PCM501ES (Beta HiFi) ( @ 44.055 kHz) > PCM501ES analog out > analog in Fostex D5 ( @ 48kHz) > Fostex D5 optical S/PDIF out (Jace's tape) > Sound Forge 5.0 > wav/shn Transferred by Tim Deibert 12-15-01 
  Archive
Source Information - Download Text | Download Zip
Grateful Dead
May 26, 1973
Kezar Stadium, San Francisco, CA


7" Betty Board Reel @ 7 1/2 ips > PCM501ES (Beta HiFi) ( @ 44.055 kHz) > PCM501ES analog out > analog in Fostex D5 ( @ 48kHz) > Fostex D5 optical S/PDIF out (Jace's tape) > Sound Forge 5.0 > wav/shn
Transferred by Tim Deibert 12-15-01

Disc 1 of 4: [66:14]

Set One:
1. Intro>Promised Land (3:26)
2. Deal (6:24)
3. Jack Straw (5:37)
4. Tennesse Jed (8:51)
5. The Race Is On (3:46)
6. Sugaree (9:46)
7. Mexicali (4:16)
8. Row...Jimmy (8:54)
9. Looks Like Rain (7:34)
10. They Love Each Other (7:34)

Disc 2 of 4: [57:44]

1. Playin' In The Band (16:56)
Set Two:
2. H.C. Sunshine (12:42)
3. El Paso (6:29)
4. Loser (7:54)
5. BIODTL (3:59)
6. You Ain't Woman Enough (3:54)
7. Box Of Rain (5:45)

Disc 3 of 4: [42:55]

1. China Cat Sunflower-> (5:49)
2. Mud Love Buddy Jam-> (1:24)
3. I Know You Rider (6:16)
4. Big River (5:28)
5. Bertha (5:53)
6. Around and Around (4:53)
Set Three:
7. Half Step (9:26)
8. Me & My Uncle (3:42)

Disc 4 of 4: [78:14]

1. He's Gone-> (13:49)
2. Truckin'-> (13:49)
3. Other...One-> (12:23)
4. Eyes Of The World-> (13:36)
5. China Doll (6:34)
6. Sugar Magnolia (10:51)
7. E:  Casey Jones (7:08)

NOTES:
* Sound Forge peak normalization to 98%.
* Tuning between songs has been preserved and
   is found at the end of the tracks.
* Reel changes in Row Jimmy (3:33), China Cat (3:17), and The Other One (4:49)

[email protected]




notes from trailmix 3-18-07:
Project WBOTB
these shns were SBE fixed (by set), decoded to wav, and encoded to flac16 (level 6). the process was repeated, resulting in identical .wavs.
although the original shns were created in late 2001, they've not circulated and they aren't listed in the database.
  major thanks to the WBOTB crew for putting this together. especially Tim, who got me the discs so i could tidy them up for mass consumption.

    length     expanded size   cdr  WAVE problems filename
     3:26.19       36383132    ---   --   ---xx   gd1973-05-26d1t01.flac
     6:24.22       67789388    ---   --   ---xx   gd1973-05-26d1t02.flac
     5:37.45       59552684    ---   --   ---xx   gd1973-05-26d1t03.flac
     8:51.38       93757820    ---   --   ---xx   gd1973-05-26d1t04.flac
     3:46.49       39981692    ---   --   ---xx   gd1973-05-26d1t05-fixed.flac
     9:46.11      103396316    ---   --   ---xx   gd1973-05-26d1t06-fixed.flac
     4:16.58       45294860    ---   --   ---xx   gd1973-05-26d1t07-fixed.flac
     8:54.08       94216460    ---   --   ---xx   gd1973-05-26d1t08-fixed.flac
     7:34.67       80243228    ---   --   ---xx   gd1973-05-26d1t09-fixed.flac
     7:34.32       80160908    ---   --   ---xx   gd1973-05-26d1t10-fixed.flac
    16:56.23      179276540    ---   --   ---xx   gd1973-05-26d2t01-fixed.flac
    12:42.22      134468588    ---   --   ---xx   gd1973-05-26d2t02.flac
     6:29.50       68737244    ---   --   ---xx   gd1973-05-26d2t03.flac
     7:54.12       83641868    ---   --   ---xx   gd1973-05-26d2t04.flac
     3:59.56       42291356    ---   --   ---xx   gd1973-05-26d2t05.flac
     3:54.33       41355260    ---   --   ---xx   gd1973-05-26d2t06.flac
     5:45.67       61015628    ---   --   ---xx   gd1973-05-26d2t07.flac
     5:49.03       61570700    ---   --   ---xx   gd1973-05-26d3t01-fixed.flac
     1:24.23       14871740    ---   --   ---xx   gd1973-05-26d3t02-fixed.flac
     6:16.32       66401708    ---   --   ---xx   gd1973-05-26d3t03-fixed.flac
     5:28.27       57922748    ---   --   ---xx   gd1973-05-26d3t04-fixed.flac
     5:53.02       62273948    ---   --   ---xx   gd1973-05-26d3t05-fixed.flac
     4:53.58       51821660    ---   --   ---xx   gd1973-05-26d3t06-fixed.flac
     9:26.42       99941228    ---   --   ---xx   gd1973-05-26d3t07-fixed.flac
     3:42.21       39210236    ---   --   ---xx   gd1973-05-26d3t08-fixed.flac
    13:49.13      146266220    ---   --   ---xx   gd1973-05-26d4t01-fixed.flac
    13:49.28      146301500    ---   --   ---xx   gd1973-05-26d4t02-fixed.flac
    12:23.04      131074652    ---   --   ---xx   gd1973-05-26d4t03-fixed.flac
    13:36.54      144069452    ---   --   ---xx   gd1973-05-26d4t04-fixed.flac
     6:34.27       69565148    ---   --   ---xx   gd1973-05-26d4t05-fixed.flac
    10:51.22      114888188    ---   --   ---xx   gd1973-05-26d4t06-fixed.flac
     7:08.49       75614492    ---   --   ---xx   gd1973-05-26d4t07-fixed.flac
   245:01.42     2593356592 B                     (totals for 32 files, 0.5394 overall compression ratio)
Show Checksums
ffp
gd1973-05-26d1t01.flac:f3494ca16c51450b83dc769a7d38a184
gd1973-05-26d1t02.flac:fa7bc6d7fb7ec48ff5103e6475ba8946
gd1973-05-26d1t03.flac:018cdff6a3df52af2a1557be9f69150b
gd1973-05-26d1t04.flac:2b7e190ad02c925caf5351882062f33e
gd1973-05-26d1t05-fixed.flac:eaff8f7011b0a6d47034ebabd7fc2284
gd1973-05-26d1t06-fixed.flac:c6bc8fcb7349126c34b75bf2a9da1c00
gd1973-05-26d1t07-fixed.flac:85ca3226c8d27e929b3a918c284d78b1
gd1973-05-26d1t08-fixed.flac:a86f1ea9077ea74237730f4ee24871b1
gd1973-05-26d1t09-fixed.flac:439dafc8e0a320ea51723fd60d735bf8
gd1973-05-26d1t10-fixed.flac:951b00ab023ae5c7ca7b07c492b25687
gd1973-05-26d2t01-fixed.flac:4841a749efac90a2dedd4afc97c202ec
gd1973-05-26d2t02.flac:3d8e8e7b0a3450dceeeabce1673bc9cd
gd1973-05-26d2t03.flac:20ffea3a132a9642e1541207d392978e
gd1973-05-26d2t04.flac:f1529f22322a9c14fbb8eb8b8903e4a3
gd1973-05-26d2t05.flac:2d3cbb100a5afd55247bf5bbe6cdc0c1
gd1973-05-26d2t06.flac:793ed41a2f694c9752f7653a358ba7cd
gd1973-05-26d2t07.flac:307bc628aef665314b1620ad92aca383
gd1973-05-26d3t01-fixed.flac:21b32c11fec9885afb68da47af0d65bc
gd1973-05-26d3t02-fixed.flac:55df28874f8c74c69ea85306c3ba60ae
gd1973-05-26d3t03-fixed.flac:1d851515eca7b6461991dba6da0527f5
gd1973-05-26d3t04-fixed.flac:186325bf49fa254d72d1eae09fe1d392
gd1973-05-26d3t05-fixed.flac:bc101db546883353cb505037c68c206c
gd1973-05-26d3t06-fixed.flac:0386e43e5565b5e6f0bf75a003f5d41c
gd1973-05-26d3t07-fixed.flac:e82c3141f13a70c5131f4ddfda503c4b
gd1973-05-26d3t08-fixed.flac:916862a9df1a744dc730bb861001c71a
gd1973-05-26d4t01-fixed.flac:1085f68bba2cbd1450caa5cbedf434df
gd1973-05-26d4t02-fixed.flac:c6455341d66b48ce813e126bbe45cab5
gd1973-05-26d4t03-fixed.flac:f179f14ccd3900995fd5d251c4426a93
gd1973-05-26d4t04-fixed.flac:57d342e4168cd473a5205cc53d22448b
gd1973-05-26d4t05-fixed.flac:6c01023c4126b6e5e41a02fd9fce95c5
gd1973-05-26d4t06-fixed.flac:660d7447d142d8c46425eef12361b6f0
gd1973-05-26d4t07-fixed.flac:7a0fb1063bba4deb3b155e34f8716b61
flac-md5
9d27e81bc1a9a83ee3f5f2b09298bd3c *gd1973-05-26d1t01.flac
be50aa332eda40c261d1fde0d47326a2 *gd1973-05-26d1t02.flac
0280f2adc4224ec60bf56129677df3fd *gd1973-05-26d1t03.flac
a9624ea376acdda366a755b447fac4ba *gd1973-05-26d1t04.flac
af4c9b4c213a5ca0f0f58fa7ef325004 *gd1973-05-26d1t05-fixed.flac
88aa2c3ba6d9f0b9949a233ce77727b5 *gd1973-05-26d1t06-fixed.flac
ec51379b39d99dad2388cedc129a742a *gd1973-05-26d1t07-fixed.flac
2415f395ed2b3d121462ffbeea4ed05e *gd1973-05-26d1t08-fixed.flac
6a9181f115fc00584b7a1ab6eaa90813 *gd1973-05-26d1t09-fixed.flac
e4d7982938258c3c77ae2c3477053d0e *gd1973-05-26d1t10-fixed.flac
1cde355f6ec855ef9d9b30af3bf3e736 *gd1973-05-26d2t01-fixed.flac
ee98ed2dbf2b6e6c372ebffe60742e6d *gd1973-05-26d2t02.flac
bc8ca078e357f95082a434e3950e7159 *gd1973-05-26d2t03.flac
d88248b709640d3475778ce13046e304 *gd1973-05-26d2t04.flac
be74a85194875870510333a5e06a5b07 *gd1973-05-26d2t05.flac
5313976a3912f08a2ca48f6b3c85ac57 *gd1973-05-26d2t06.flac
f723bcc2adbda2229eb55e7d20dd5375 *gd1973-05-26d2t07.flac
5ebfce09b9d0c0407ae0af959f64b456 *gd1973-05-26d3t01-fixed.flac
ca14c040b924199b554980da6fa91856 *gd1973-05-26d3t02-fixed.flac
2abed087d666cb0389a88d52cb7b6082 *gd1973-05-26d3t03-fixed.flac
c407d1c475f4d4bbb63ab4d7b15e44e5 *gd1973-05-26d3t04-fixed.flac
2ec901cbf58b06e8a2348f036763bc92 *gd1973-05-26d3t05-fixed.flac
886618bdae74849725862fee0d126e8e *gd1973-05-26d3t06-fixed.flac
e1e80f61c369a0bdf02575f8a8a02de3 *gd1973-05-26d3t07-fixed.flac
de8840dd5a4501ad1ed5fcaaf6d0e924 *gd1973-05-26d3t08-fixed.flac
e71a80dfb6a4d706f31c7b8865ada7aa *gd1973-05-26d4t01-fixed.flac
638b2243cd636cd3ff157f78ce004feb *gd1973-05-26d4t02-fixed.flac
d138fce0efa9a910757204d29c05aca1 *gd1973-05-26d4t03-fixed.flac
656d3284b79751d2d4b904de3965391d *gd1973-05-26d4t04-fixed.flac
89a94fc06bfa6c94c2309cc04513bac3 *gd1973-05-26d4t05-fixed.flac
6ad506df4141247a78e020cd76e7b101 *gd1973-05-26d4t06-fixed.flac
359e5f7e51a1aef7ee8fd20c8ad9be86 *gd1973-05-26d4t07-fixed.flac

Comments
Add Comment
Other Sources (comments)
Re-eac of (10) MSR>DAT>CD>EAC>WAV>SHN... (4) flac16;... (0) flac16; Recording... (0)
Date User Comment