Browse Collections Artists Sources   Search Dates

Add Show    List Management    Help


Grateful Dead 03/05/81
Stanley Theater, Pittsburgh, PA
Comments Add Comment    Source Collectors    Add to Collection    Add to Want List    History
Source # 83494 Other Sources
Entered by Matt Vernon
Checksums ffp , flac-md5
Disc Counts 2 / 3
Media Size
Date Circulated
Date Added
03/19/2007
03/20/2007
Source Summary flac16; Recording by Mason Taylor and Mark Radnor: : NAK 700 (shotgun capsules) > Nak 550 Cassette Recorder > Maxell Metal Location: 1st Row of lower balcony Recorded by: Mason Taylor and Mark Radnor (Radish) MAC Transfer by: Adam Gross - Cassette Master > HHB Porta-a-DAT DAT Transfer by: Todd Evans DAT > TASCAM DA-20 (S/PDIF out) -> Apogee Wide Eye S/PDIF interconnect -> LynxTWO-A Audio Reference Interface (S/PDIF in) -> Wavelab 6.0 (note: this was originally seeded with the files named incorrectly. The info file below reflects the corrected file names and a renamed md5 file has been included.) 
  Archive
Source Information - Download Text | Download Zip
Grateful Dead
March 5, 1981
Stanley Theatre, Pittsburgh, PA

Recording Info: NAK 700 (shotgun capsules) > Nak 550 Cassette Recorder > Maxell Metal
Location: 1st Row of lower balcony
Recorded by: Mason Taylor and Mark Radnor (Radish)
MAC Transfer by: Adam Gross - Cassette Master > HHB Porta-a-DAT (transferred 1995)

DAT from the collection of Adam Gross
DAT Transfer by: Todd Evans DAT > TASCAM DA-20 (S/PDIF out) -> Apogee Wide Eye S/PDIF interconnect -> LynxTWO-A Audio

Reference Interface (S/PDIF in) -> Wavelab 6.0
Transferred February 13, 2007

Editing Info- All editing and mastering by Jamie Waddell
Wavelab 6.0 using Ozone and L2 for dither
March 19, 2007
[email protected]

notes-
-sbd shnid 14024 and Jim Wise aud shnid 3290 used for small patches in Minglewood, the tape flip in drums and a glitch in A&A
-noteworthy version of The Music Never Stopped


a **GEMS** Production   www.shnflac.net

    
Set I      
d1t01.Alabama Getaway>
d1t02.Greatest Story
d1t03.Friend of the Devil
d1t04.C. C. Rider
d1t05.Althea
d1t06.Mama Tried ->
d1t07.Mexicali Blues
d1t08.To Lay Me Down
d1t09.Minglewood Blues
d1t10.Tennessee Jed ->
d1t11.The Music Never Stopped

Set II
d2t01.Jam ->
d2t02.Passenger
d2t03.Scarlet Begonias ->
d2t04.Fire on the Mountain
d2t05.Playin in the Band>
d2t06.Drums>
d3t01.Space>
d3t02.Not Fade Away>
d3t03.Wharf Rat>
d3t04 Around & Around>
d3t05 Johnny B. Goode
d3t06 E: U.S. Blues

Original flac fingerprint file generated by Trader's Little Helper
generated on March 19, 2007, at 8:20 pm HOWEVER, I  re-made just the FFPS the next day and submitted to db.etree because I

messed up on teh original seed and named the files 1987.  These FFPs are NEW and the text file updated.  The shntool output

is new and I have included an MD5 for posterity.  Again, I am sorry.  My sincere apologies.  Change each flac file that says

gd87-03-05.GEMS-Radish.d1t01.flac, ETC...to gd81-03-05.GEMS-Radish.d1t01.flac, ETC and run this FFP.  All will pass.

flac fingerprint file generated by Trader's Little Helper
generated on March 20, 2007, at 9:06 pm
flac fingerprint file generated by Trader's Little Helper
generated on March 20, 2007, at 9:06 pm

gd81-03-05.GEMS-Radish.d1t01.flac:6aab811c69ad0d783c60859c491f235c
gd81-03-05.GEMS-Radish.d1t02.flac:b732ec67667fac8de04155c43f8073a5
gd81-03-05.GEMS-Radish.d1t03.flac:9d4fc52679d8e9625adcec5d7f800979
gd81-03-05.GEMS-Radish.d1t04.flac:e564b35eb3120eec89b2c4d7bbcb94a6
gd81-03-05.GEMS-Radish.d1t05.flac:369496710e34d4044802b692cb3396b5
gd81-03-05.GEMS-Radish.d1t06.flac:7b66b1092e5d1a9a9b9ade6dc2daa075
gd81-03-05.GEMS-Radish.d1t07.flac:078df98df6f422219fac841dcacbd0d6
gd81-03-05.GEMS-Radish.d1t08.flac:33621290047da01e0d843c9a4ca367e3
gd81-03-05.GEMS-Radish.d1t09.flac:45b4d727611ea62f7658e3b3ddb69098
gd81-03-05.GEMS-Radish.d1t10.flac:ece1306a99789c1f90583754814b479f
gd81-03-05.GEMS-Radish.d1t11.flac:54ebcb46bb2ba237cd5b0639ed48a669
gd81-03-05.GEMS-Radish.d2t01.flac:023fed37b113c05e630515493f50868a
gd81-03-05.GEMS-Radish.d2t02.flac:8cb53318167023815d8edb35c2e4367e
gd81-03-05.GEMS-Radish.d2t03.flac:5c79dad946efb165e36d2201c606eb00
gd81-03-05.GEMS-Radish.d2t04.flac:e5180dc969c35b20c45c8b1d46396ee8
gd81-03-05.GEMS-Radish.d2t05.flac:3035df273c49396f1cf2d9050afea1fc
gd81-03-05.GEMS-Radish.d2t06.flac:8784b767b4c85978a020796a5a0a996f
gd81-03-05.GEMS-Radish.d3t01.flac:84331cc42dbce28a51fe37b86e0a1a1d
gd81-03-05.GEMS-Radish.d3t02.flac:7d60f1c9d5fbf4c0a31ed189f329233e
gd81-03-05.GEMS-Radish.d3t03.flac:b3e40aeafce2c4d025df4a8c20460e44
gd81-03-05.GEMS-Radish.d3t04.flac:a127242f847e69c5bbd531b74648c50d
gd81-03-05.GEMS-Radish.d3t05.flac:7d78e4dcb9e3c54525ca08995cc716eb
gd81-03-05.GEMS-Radish.d3t06.flac:ff5821a0bb80d99273cc407a5744a168



   length     expanded size   cdr  WAVE problems filename
    5:22.36       56885516    ---   --   ---xx   gd81-03-05.GEMS-Radish.d1t01.flac
    4:26.62       47068268    ---   --   ---xx   gd81-03-05.GEMS-Radish.d1t02.flac
    9:28.15      100230524    ---   --   ---xx   gd81-03-05.GEMS-Radish.d1t03.flac
    7:44.55       81979004    ---   --   ---xx   gd81-03-05.GEMS-Radish.d1t04.flac
    8:07.39       85998572    ---   --   ---xx   gd81-03-05.GEMS-Radish.d1t05.flac
    2:33.72       27158588    ---   --   ---xx   gd81-03-05.GEMS-Radish.d1t06.flac
    5:26.68       57666380    ---   --   ---xx   gd81-03-05.GEMS-Radish.d1t07.flac
    9:53.69      104767532    ---   --   ---xx   gd81-03-05.GEMS-Radish.d1t08.flac
    7:57.73       84314540    ---   --   ---xx   gd81-03-05.GEMS-Radish.d1t09.flac
    8:56.61       94693916    ---   --   ---xx   gd81-03-05.GEMS-Radish.d1t10.flac
    8:11.27       86675948    ---   --   ---xx   gd81-03-05.GEMS-Radish.d1t11.flac
    7:08.47       75609788    ---   --   ---xx   gd81-03-05.GEMS-Radish.d2t01.flac
    5:43.22       60556988    ---   --   ---xx   gd81-03-05.GEMS-Radish.d2t02.flac
   11:33.10      122268764    ---   --   ---xx   gd81-03-05.GEMS-Radish.d2t03.flac
   11:07.74      117832892    ---   --   ---xx   gd81-03-05.GEMS-Radish.d2t04.flac
   13:29.20      142754684    ---   --   ---xx   gd81-03-05.GEMS-Radish.d2t05.flac
    2:44.14       28962572    ---   --   ---xx   gd81-03-05.GEMS-Radish.d2t06.flac
    4:18.07       45527708    ---   --   ---xx   gd81-03-05.GEMS-Radish.d3t01.flac
   10:12.15      107992124    ---   --   ---xx   gd81-03-05.GEMS-Radish.d3t02.flac
   10:48.22      114358988    ---   --   ---xx   gd81-03-05.GEMS-Radish.d3t03.flac
    4:06.69       43556732    ---   --   ---xx   gd81-03-05.GEMS-Radish.d3t04.flac
    4:39.52       49337948    ---   --   ---xx   gd81-03-05.GEMS-Radish.d3t05.flac
    5:25.42       57428828    ---   --   ---xx   gd81-03-05.GEMS-Radish.d3t06.flac
  169:27.71     1793626804 B                     (totals for 23 files, 0.5708 overall compression ratio)
Show Checksums
ffp
gd81-03-05.GEMS-Radish.d1t01.flac:6aab811c69ad0d783c60859c491f235c
gd81-03-05.GEMS-Radish.d1t02.flac:b732ec67667fac8de04155c43f8073a5
gd81-03-05.GEMS-Radish.d1t03.flac:9d4fc52679d8e9625adcec5d7f800979
gd81-03-05.GEMS-Radish.d1t04.flac:e564b35eb3120eec89b2c4d7bbcb94a6
gd81-03-05.GEMS-Radish.d1t05.flac:369496710e34d4044802b692cb3396b5
gd81-03-05.GEMS-Radish.d1t06.flac:7b66b1092e5d1a9a9b9ade6dc2daa075
gd81-03-05.GEMS-Radish.d1t07.flac:078df98df6f422219fac841dcacbd0d6
gd81-03-05.GEMS-Radish.d1t08.flac:33621290047da01e0d843c9a4ca367e3
gd81-03-05.GEMS-Radish.d1t09.flac:45b4d727611ea62f7658e3b3ddb69098
gd81-03-05.GEMS-Radish.d1t10.flac:ece1306a99789c1f90583754814b479f
gd81-03-05.GEMS-Radish.d1t11.flac:54ebcb46bb2ba237cd5b0639ed48a669
gd81-03-05.GEMS-Radish.d2t01.flac:023fed37b113c05e630515493f50868a
gd81-03-05.GEMS-Radish.d2t02.flac:8cb53318167023815d8edb35c2e4367e
gd81-03-05.GEMS-Radish.d2t03.flac:5c79dad946efb165e36d2201c606eb00
gd81-03-05.GEMS-Radish.d2t04.flac:e5180dc969c35b20c45c8b1d46396ee8
gd81-03-05.GEMS-Radish.d2t05.flac:3035df273c49396f1cf2d9050afea1fc
gd81-03-05.GEMS-Radish.d2t06.flac:8784b767b4c85978a020796a5a0a996f
gd81-03-05.GEMS-Radish.d3t01.flac:84331cc42dbce28a51fe37b86e0a1a1d
gd81-03-05.GEMS-Radish.d3t02.flac:7d60f1c9d5fbf4c0a31ed189f329233e
gd81-03-05.GEMS-Radish.d3t03.flac:b3e40aeafce2c4d025df4a8c20460e44
gd81-03-05.GEMS-Radish.d3t04.flac:a127242f847e69c5bbd531b74648c50d
gd81-03-05.GEMS-Radish.d3t05.flac:7d78e4dcb9e3c54525ca08995cc716eb
gd81-03-05.GEMS-Radish.d3t06.flac:ff5821a0bb80d99273cc407a5744a168
flac-md5
3a03f57a6ebac4b5a256de673792782d *gd81-03-05.GEMS-Radish.d1t01.flac
f096f4d817dbcb4f13294f36c5dd65ff *gd81-03-05.GEMS-Radish.d1t02.flac
b22d9c02c0a87ce14745ac3849045a49 *gd81-03-05.GEMS-Radish.d1t03.flac
7fcee662981f580cc71e3ac63d4d3642 *gd81-03-05.GEMS-Radish.d1t04.flac
b319214c7e7e795a2d832cca44e44413 *gd81-03-05.GEMS-Radish.d1t05.flac
2321a2bab9aa61fd48b081399d9a0201 *gd81-03-05.GEMS-Radish.d1t06.flac
2d1c97c5059f2d4dc80cf8209b7173fa *gd81-03-05.GEMS-Radish.d1t07.flac
0dd12109488c235e417b25e8ae35fc44 *gd81-03-05.GEMS-Radish.d1t08.flac
a340a1a5a563ccab73bc6fed07c59ea2 *gd81-03-05.GEMS-Radish.d1t09.flac
06f16f675dfdbaedd8efe21d7d85bbf9 *gd81-03-05.GEMS-Radish.d1t10.flac
2a86a32bb3a0c00c1c202ba542a27b03 *gd81-03-05.GEMS-Radish.d1t11.flac
41dd3998e54d08d322aa61321116e930 *gd81-03-05.GEMS-Radish.d2t01.flac
36254fc3eae2cfccad9aee0b6ad87987 *gd81-03-05.GEMS-Radish.d2t02.flac
1308a20fb87a869452317b8acf250093 *gd81-03-05.GEMS-Radish.d2t03.flac
7c30fb66d2d56e3937e55473000a2efd *gd81-03-05.GEMS-Radish.d2t04.flac
891cfef815fb28bf3dad76d635ec25b2 *gd81-03-05.GEMS-Radish.d2t05.flac
5f4293c8bd1b729239a6ed9371567ea2 *gd81-03-05.GEMS-Radish.d2t06.flac
9bb91ac39769ec9544737026986624b8 *gd81-03-05.GEMS-Radish.d3t01.flac
3374cfb2417f280fcff2d8a313993c81 *gd81-03-05.GEMS-Radish.d3t02.flac
d080d6b50d2d2a725114f1ebb384639c *gd81-03-05.GEMS-Radish.d3t03.flac
a6d64962971a2de79646e91a6fa1d6c1 *gd81-03-05.GEMS-Radish.d3t04.flac
5abc44d471d0ae3976b49e857f77810b *gd81-03-05.GEMS-Radish.d3t05.flac
6388f73397f493ee66ba97ffa1105cac *gd81-03-05.GEMS-Radish.d3t06.flac

Comments
Add Comment
Other Sources (comments)
Audience recording by Jim... (0) Set 2 soundboard, minus... (1) flac24; Recording by... (0) flac16; Recording by... (0) flac16; Recorded By... (0) flac16; AUD: Unknown... (0) flac16; Source Info:... (0) flac24; Source Info:... (0)
Date User Comment
03/21/2007 doses I'm just an idiot and named em 198SEVEN instead of 198ONE..so if you own the misnamed file and want to reseed it, rename the 7 to a one in the flacs and download this text file and FFP and it will circulate properly..My most sincere apologies.-jamie