Browse Collections Artists Sources   Search Dates

Add Show    List Management    Help


Grateful Dead 04/05/89
Crisler Arena, Ann Arbor, MI
Comments Add Comment    Source Collectors    Add to Collection    Add to Want List    History
Source # 83501 Other Sources
Entered by Matt Vernon
Checksums ffp , flac-md5
Disc Counts 2 / 3
Media Size
Date Circulated
Date Added
03/20/2007
03/20/2007
Source Summary flac16; Recording Info: SBD -> Cassette Master (TDK MA-XG90) Transfer Info: Cassette Master (Tascam 122mkII) -> Apogee MiniMe (24bit/48k) -> Samplitude Professional v8.01 -> FLAC/16 All Transfers and Mastering By Charlie Miller 
  Archive
Source Information - Download Text | Download Zip
Grateful Dead - April 5, 1989
Crisler Arena - Ann Arbor, MI
University of Michigan

Recording Info:
SBD -> Cassette Master (TDK MA-XG90)

Transfer Info:
Cassette Master (Tascam 122mkII) -> Apogee MiniMe (24bit/48k) ->
Samplitude Professional v8.01 -> FLAC/16
(3 Discs Audio / 2 Discs FLAC)

All Transfers and Mastering By Charlie Miller
[email protected]
January 24, 2007

Notes:
-- 2nd Set is seamless
-- Thanks to Paul Scotton and Joani Walker for the tapes

Set 1:
d1t01 - Tuning
d1t02 - Feel Like A Stranger ->
d1t03 - Franklin's Tower
d1t04 - New Minglewood Blues
d1t05 - Candyman
d1t06 - Stuck Inside Of Mobile With The Memphis Blues Again
d1t07 - Far From Me
d1t08 - Dupree's Diamond Blues
d1t09 - Let It Grow ->
d1t10 - U.S. Blues

Set 2:
d2t01 - Tuning
d2t02 - Samson And Delilah ->
d2t03 - Cumberland Blues
d2t04 - Man Smart (Woman Smarter) ->
d2t05 - Terrapin Station ->
d2t06 - Drums ->
d3t01 - Space ->
d3t02 - China Doll ->
d3t03 - Throwing Stones ->
d3t04 - Not Fade Away

Encore:
d3t05 - The Mighty Quinn (Quinn The Eskimo)


SHNTOOL OUTPUT:
    length     expanded size   cdr  WAVE problems filename
     3:04.09       32478812    ---   --   -----   gd89-04-05d1t01.wav
     8:15.28       87383900    ---   --   -----   gd89-04-05d1t02.wav
    10:22.01      109723196    ---   --   -----   gd89-04-05d1t03.wav
     8:25.05       89093804    ---   --   -----   gd89-04-05d1t04.wav
     7:34.20       80132684    ---   --   -----   gd89-04-05d1t05.wav
     9:24.50       99607244    ---   --   -----   gd89-04-05d1t06.wav
     5:39.67       59957228    ---   --   -----   gd89-04-05d1t07.wav
     5:51.24       61972892    ---   --   -----   gd89-04-05d1t08.wav
    11:41.29      123724652    ---   --   -----   gd89-04-05d1t09.wav
     5:37.35       59529164    ---   --   -----   gd89-04-05d1t10.wav
     2:32.23       26866940    ---   --   -----   gd89-04-05d2t01.wav
     6:59.40       74005724    ---   --   -----   gd89-04-05d2t02.wav
     6:04.33       64287260    ---   --   -----   gd89-04-05d2t03.wav
     6:49.21       72197036    ---   --   -----   gd89-04-05d2t04.wav
    12:39.54      134014652    ---   --   -----   gd89-04-05d2t05.wav
    10:29.34      111035612    ---   --   -----   gd89-04-05d2t06.wav
     8:13.20       87012284    ---   --   -----   gd89-04-05d3t01.wav
     6:49.53       72272300    ---   --   -----   gd89-04-05d3t02.wav
     9:46.27      103433948    ---   --   -----   gd89-04-05d3t03.wav
    11:25.01      120836396    ---   --   -----   gd89-04-05d3t04.wav
     4:39.31       49288556    ---   --   -----   gd89-04-05d3t05.wav
   162:24.05     1718854284 B                     (totals for 21 files)
Show Checksums
ffp
gd89-04-05d1t01.flac:af7c446a347ac378e18a7a63fe3ecc1c
gd89-04-05d1t02.flac:88306310d7410ba55049790dbbb6a6b0
gd89-04-05d1t03.flac:a0f68bad17e08e6c7e4d9506b64f7aad
gd89-04-05d1t04.flac:7e9ea3479588600afa34434c3df07b34
gd89-04-05d1t05.flac:aae8e35d990b3dc42cf5f053a7f88db3
gd89-04-05d1t06.flac:1bc7678021c2caf1884571b0825e5363
gd89-04-05d1t07.flac:6c462da3abebc9438eb80f6a85028aa2
gd89-04-05d1t08.flac:61799b3cd04c860b107dfb970457c9d1
gd89-04-05d1t09.flac:a49ef5c986fc852b06075239c0556024
gd89-04-05d1t10.flac:03660dca00a507897f34625558c319b7
gd89-04-05d2t01.flac:9321c6994a4caa394ce8374c58572c67
gd89-04-05d2t02.flac:cd40570acb4c821fa83144bbb5e095ef
gd89-04-05d2t03.flac:6943daaa08dbc922c4db2406fe86a8bf
gd89-04-05d2t04.flac:8edae7ab2a97ba782a8c1e351ac627ac
gd89-04-05d2t05.flac:7056d0b41d1367553d708249ea888427
gd89-04-05d2t06.flac:253d596eed8107c066c4741bd3e427d3
gd89-04-05d3t01.flac:02790b2e77792d39c8feba212f2f7d9a
gd89-04-05d3t02.flac:ff0a4d3d8d6f3e2a4f5790ec2035c34f
gd89-04-05d3t03.flac:70220d024cc4e4251edf8c17a734745d
gd89-04-05d3t04.flac:bda5cf115192da0105d11eecc4043ed6
gd89-04-05d3t05.flac:c5211425e9c3a76bf4545a34db9121fa
flac-md5
f45424ae8b80dd8287e6fdc7bd794558 *gd89-04-05d1t01.flac
d9a003e87af65afaac2a9f06104c4493 *gd89-04-05d1t02.flac
7715add13c84407b3468104b87bf9a63 *gd89-04-05d1t03.flac
859ad2d3a5b4b7eb19fb7b1e554c9be0 *gd89-04-05d1t04.flac
c29fbf6b4cc0de816e97f86607e43931 *gd89-04-05d1t05.flac
cc226c05e7eb4247bc70662b54fb471c *gd89-04-05d1t06.flac
cbd31501e404030e7c69c4dc9258a2dd *gd89-04-05d1t07.flac
cb2b2ce78776af176f8665c3e4fc9fb4 *gd89-04-05d1t08.flac
89534f69ed0f74610993bbf737628091 *gd89-04-05d1t09.flac
3247b80bf3371b55e527da30eeb200d2 *gd89-04-05d1t10.flac
15b94069eb949b50e257ecda807595f4 *gd89-04-05d2t01.flac
9d9796a28febc03f7efb1c89bb9a67e8 *gd89-04-05d2t02.flac
20ab1fb98ec704d9d61b2d42a9158c52 *gd89-04-05d2t03.flac
b7af6fc35c7eecfd1f1f213806dd6290 *gd89-04-05d2t04.flac
493e6121b0d879f50f46c6f0f73704d5 *gd89-04-05d2t05.flac
39274faa5d2655a93b5724e35e5001ad *gd89-04-05d2t06.flac
c739e1a8a3796512ab83b8b0ddbd97cf *gd89-04-05d3t01.flac
576a535aefc44f4baf94e31615c3f43a *gd89-04-05d3t02.flac
cad9a6184694c3af38b2dea9139561c8 *gd89-04-05d3t03.flac
02b1d62e8627c0f695d8ce5724ce83b2 *gd89-04-05d3t04.flac
72a023937cd2d287bf3f7d4bd399261c *gd89-04-05d3t05.flac

Comments
Add Comment
Other Sources (comments)
Healy Ultra Mix - sbd+aud>... (2) Healy Ultra Mix Cassette... (0) flac16; source: aud... (0) flac16; Taper: Greg... (0) flac16; Recorded &... (0) flac16; Source Info:... (0)
Date User Comment