Browse Collections Artists Sources   Search Dates

Add Show    List Management    Help


Grateful Dead 04/06/89
Crisler Arena, Ann Arbor, MI
Comments Add Comment    Source Collectors    Add to Collection    Add to Want List    History
Source # 83508 Other Sources
Entered by Matt Vernon
Checksums flac-md5 , ffp
Disc Counts 2 / 3
Media Size
Date Circulated
Date Added
03/20/2007
03/21/2007
Source Summary flac16; Recording Info: SBD -> Cassette Master (TDK MA-XG90); Transfer Info: Cassette Master (Tascam 122mkII) -> Apogee MiniMe (24bit/48k) -> Samplitude Professional v8.01 -> FLAC/16 All Transfers and Mastering By Charlie Miller 
  Archive
Source Information - Download Text | Download Zip
Grateful Dead - April 6, 1989
Crisler Arena - Ann Arbor, MI
University of Michigan

Recording Info:
SBD -> Cassette Master (TDK MA-XG90)

Transfer Info:
Cassette Master (Tascam 122mkII) -> Apogee MiniMe (24bit/48k) ->
Samplitude Professional v8.01 -> FLAC/16
(3 Discs Audio / 2 Discs FLAC)

All Transfers and Mastering By Charlie Miller
[email protected]
January 24, 2007

Notes:
-- 2nd Set is seamless
-- Thanks to Paul Scotton and Joani Walker for the tapes

Set 1:
d1t01 - Tuning
d1t02 - Touch Of Grey
d1t03 - Little Red Rooster
d1t04 - Brown Eyed Women
d1t05 - Mama Tried ->
d1t06 - Mexicali Blues
d1t07 - Althea
d1t08 - When I Paint My Masterpiece
d1t09 - Bird Song
d1t10 - The Promised Land

Set 2:
d2t01 - Tuning
d2t02 - Scarlet Begonias ->
d2t03 - Fire On The Mountain
d2t04 - Playing In The Band ->
d2t05 - Built To Last ->
d2t06 - Drums ->
d3t01 - Space ->
d3t02 - I Will Take You Home ->
d3t03 - The Other One ->
d3t04 - Wharf Rat ->
d3t05 - Around And Around ->
d3t06 - Playing In The Band

Encore:
d3t07 - Brokedown Palace


SHNTOOL OUTPUT:
    length     expanded size   cdr  WAVE problems filename
     1:07.06       11832956    ---   --   -----   gd89-04-06d1t01.wav
     6:16.26       66387596    ---   --   -----   gd89-04-06d1t02.wav
    10:52.47      115123388    ---   --   -----   gd89-04-06d1t03.wav
     5:55.50       62739644    ---   --   -----   gd89-04-06d1t04.wav
     2:35.15       27377324    ---   --   -----   gd89-04-06d1t05.wav
     5:57.70       63139484    ---   --   -----   gd89-04-06d1t06.wav
     6:54.58       73166060    ---   --   -----   gd89-04-06d1t07.wav
     6:17.45       66608684    ---   --   -----   gd89-04-06d1t08.wav
    13:20.00      141120044    ---   --   -----   gd89-04-06d1t09.wav
     4:41.41       49664876    ---   --   -----   gd89-04-06d1t10.wav
     1:25.68       15153980    ---   --   -----   gd89-04-06d2t01.wav
     9:30.60      100689164    ---   --   -----   gd89-04-06d2t02.wav
    13:45.42      145628828    ---   --   -----   gd89-04-06d2t03.wav
    12:45.04      134955452    ---   --   -----   gd89-04-06d2t04.wav
     7:25.06       78512156    ---   --   -----   gd89-04-06d2t05.wav
    10:11.04      107789852    ---   --   -----   gd89-04-06d2t06.wav
     6:52.67       72834428    ---   --   -----   gd89-04-06d3t01.wav
     3:59.17       42199628    ---   --   -----   gd89-04-06d3t02.wav
     7:46.42       82301228    ---   --   -----   gd89-04-06d3t03.wav
     9:48.21      103772636    ---   --   -----   gd89-04-06d3t04.wav
     4:01.21       42561836    ---   --   -----   gd89-04-06d3t05.wav
     4:25.20       46793084    ---   --   -----   gd89-04-06d3t06.wav
     5:26.54       57633452    ---   --   -----   gd89-04-06d3t07.wav
   161:22.34     1707985780 B                     (totals for 23 files)
Show Checksums
flac-md5
25dfd182b0ff12bae89100d40ec1343d *gd89-04-06d1t01.flac
1d338f7200e2f0e191bb85cb67ce71a3 *gd89-04-06d1t02.flac
2cf8b54b38197ba358b36c9251d7e968 *gd89-04-06d1t03.flac
c305d0de0a42f0c3833c38d14efd6310 *gd89-04-06d1t04.flac
871849571dafc4d53cfa7ed88138025a *gd89-04-06d1t05.flac
7db3fdbddae9a327342ec23d4c4d7af1 *gd89-04-06d1t06.flac
c73f07021f16628b93bde59be4310bf3 *gd89-04-06d1t07.flac
9b639ef221e64a9afa602942643003a3 *gd89-04-06d1t08.flac
3a7e94c97f3d2296901a042700c3dc24 *gd89-04-06d1t09.flac
976b01ffebd60ac88f67c7eb6cee1c34 *gd89-04-06d1t10.flac
383a71ebd5063c51c36feb80b953e55e *gd89-04-06d2t01.flac
8da1f142d669bf2f376d202efc00f1ac *gd89-04-06d2t02.flac
dab158d1f9c9d159ac1a9290bf5c7b71 *gd89-04-06d2t03.flac
b20670b77e80d3b983b98543712d31ce *gd89-04-06d2t04.flac
8ceb259b0443403f746258ac62055f12 *gd89-04-06d2t05.flac
977f642010115ea187f3108cead66846 *gd89-04-06d2t06.flac
25bbe17da862c0d6f6732d282102ab4d *gd89-04-06d3t01.flac
5ba6d22e6921aefdadb3f301926a06f3 *gd89-04-06d3t02.flac
208d767a68e8dc1fdc4a11bd92ca85bd *gd89-04-06d3t03.flac
d1b63d035e97ce8421da4fc203435a1a *gd89-04-06d3t04.flac
dae89ae6ad6721c0355e8b3d45acb58c *gd89-04-06d3t05.flac
ffb924e797c955b6cfc90a75228fc179 *gd89-04-06d3t06.flac
837a9f59f7a0adfb732dd7289a2ce97c *gd89-04-06d3t07.flac
ffp
gd89-04-06d1t01.flac:10dba63b8c2c12db8ee29d677805cca2
gd89-04-06d1t02.flac:769a4dc328c8f9d4f533dbafd67cf978
gd89-04-06d1t03.flac:14d2772ec56cfc8e11caa01d655e6ca6
gd89-04-06d1t04.flac:85a0da5f362d0fdb09a4c99802f89bbf
gd89-04-06d1t05.flac:397ab56d0f3b751878b49a9e888f913d
gd89-04-06d1t06.flac:9d4be41bd001b683eaaf0f4d9e199d79
gd89-04-06d1t07.flac:b1f94b88c2adbd86442033b36068d54b
gd89-04-06d1t08.flac:6dc30fc3343772a82a50071bff4db545
gd89-04-06d1t09.flac:7a96c55978ea4f473c66cc676a606f94
gd89-04-06d1t10.flac:7552408f070f4b5239da7ca357eae994
gd89-04-06d2t01.flac:4f02426c01fa475b141661e18ee30b84
gd89-04-06d2t02.flac:0e44e39f8bd8fc40e7f454445398f141
gd89-04-06d2t03.flac:1d0bf2edff75e40fbb990b6efa6620af
gd89-04-06d2t04.flac:a0c87211fd807cc8ef7fa4c602823788
gd89-04-06d2t05.flac:0472413e8ee7fc728eb808edb412194f
gd89-04-06d2t06.flac:86feec1197f44c1098be5c52ce02df8f
gd89-04-06d3t01.flac:a643e3fcecb0f73d2ab0bbc810c7c016
gd89-04-06d3t02.flac:517433750a36ae19b2683544c42dcbe2
gd89-04-06d3t03.flac:11ebc2468a98834f42bdb5b3de10d959
gd89-04-06d3t04.flac:825516f1dc3513ceadb4668e3962ec19
gd89-04-06d3t05.flac:1d5b1f406c1788b1abd973087994a438
gd89-04-06d3t06.flac:4c59ba8e5b3ffbad3ab9e4f7233247b3
gd89-04-06d3t07.flac:4a4c41a1d2e7d71da3a60ce64063e5e9

Comments
Add Comment
Other Sources (comments)
Healy Ultra Mix - sbd+aud>... (2) complete; Soundboard... (1) flac16; source: aud... (0) flac16; matrix... (0) flac16; Taper: Greg... (0) flac16; Recorded &... (0) flac16; (original... (0) flac16; Matrix 2... (0) DTS-Audio-CD 5.1... (0) flac16; Source Info:... (0)
Date User Comment